[ create a new paste ] login | about

Link: http://codepad.org/nhxXAS4l    [ raw code | fork ]

Plain Text, pasted on Nov 22:
foobar2000 1.3 / Dynamic Range Meter 1.1.1
log date: 2014-11-06 12:03:45

--------------------------------------------------------------------------------
Analyzed: Mike Bloomfield, Al Kooper, Stephen Stills / Super Session (2104 AF Hybrid SACD)
--------------------------------------------------------------------------------

DR         Peak         RMS     Duration Track
--------------------------------------------------------------------------------
DR11      -1.16 dB   -15.65 dB      6:54 01-Albert's Shuffle
DR12      -1.98 dB   -17.23 dB      4:23 02-Stop
DR13      -1.95 dB   -18.54 dB      3:25 03-Man's Temptation
DR12      -2.96 dB   -18.10 dB      9:13 04-His Holy Modal Majesty
DR11      -4.40 dB   -18.48 dB      5:27 05-Really
DR12      -1.07 dB   -16.78 dB      3:31 06-It Takes A Lot To Laugh, It Takes A Train To Cry
DR12      -1.50 dB   -18.35 dB     11:08 07-Season Of The Witch
DR12      -2.45 dB   -17.03 dB      4:10 08-You Don't Love Me
DR11      -3.81 dB   -18.19 dB      2:09 09-Harvey's Tune
--------------------------------------------------------------------------------

Number of tracks:  9
Official DR value: DR12

Samplerate:        88200 Hz
Channels:          2
Bits per sample:   24
Bitrate:           2721 kbps
Codec:             FLAC
================================================================================




Create a new paste based on this one


Comments: