[ create a new paste ] login | about

Link: http://codepad.org/nkeRRoG8    [ raw code | fork ]

Plain Text, pasted on Nov 2:
Exact Audio Copy V1.1 from 23. June 2015

EAC extraction logfile from 24. October 2016, 20:32

Lou Reed / Street Hassle

Used drive  : PLEXTOR BD-R  PX-B950SA   Adapter: 1  ID: 1

Read mode               : Secure
Utilize accurate stream : Yes
Defeat audio cache      : Yes
Make use of C2 pointers : No

Read offset correction                      : 6
Overread into Lead-In and Lead-Out          : No
Fill up missing offset samples with silence : Yes
Delete leading and trailing silent blocks   : No
Null samples used in CRC calculations       : Yes
Used interface                              : Native Win32 interface for Win NT & 2000

Used output format : Internal WAV Routines
Sample format      : 44.100 Hz; 16 Bit; Stereo


TOC of the extracted CD

     Track |   Start  |  Length  | Start sector | End sector 
    ---------------------------------------------------------
        1  |  0:00.00 |  3:17.05 |         0    |    14779   
        2  |  3:17.05 |  4:45.37 |     14780    |    36191   
        3  |  8:02.42 | 11:00.56 |     36192    |    85747   
        4  | 19:03.23 |  2:57.25 |     85748    |    99047   
        5  | 22:00.48 |  3:23.06 |     99048    |   114278   
        6  | 25:23.54 |  3:13.37 |    114279    |   128790   
        7  | 28:37.16 |  4:47.52 |    128791    |   150367   
        8  | 33:24.68 |  3:14.31 |    150368    |   164948   


Range status and errors

Selected range

     Filename C:\Lou Reed\2016 RCA & Arista Album Collection (17CD Box Set Sony Music)\1978 Street Hassle\Lou Reed - Street Hassle.wav

     Peak level 95.9 %
     Extraction speed 6.6 X
     Range quality 100.0 %
     Test CRC 6DB37B36
     Copy CRC 6DB37B36
     Copy OK

No errors occurred

 
AccurateRip summary
 
Track  1  not present in database
Track  2  not present in database
Track  3  not present in database
Track  4  not present in database
Track  5  not present in database
Track  6  not present in database
Track  7  not present in database
Track  8  not present in database
 
None of the tracks are present in the AccurateRip database

End of status report

---- CUETools DB Plugin V2.1.6

[CTDB TOCID: EZJ3MJdb9CrU8..tVMtVvuFlkCs-] found
Submit result: EZJ3MJdb9CrU8..tVMtVvuFlkCs- has been confirmed
Track | CTDB Status
  1   | (4/4) Accurately ripped
  2   | (4/4) Accurately ripped
  3   | (4/4) Accurately ripped
  4   | (4/4) Accurately ripped
  5   | (4/4) Accurately ripped
  6   | (4/4) Accurately ripped
  7   | (4/4) Accurately ripped
  8   | (4/4) Accurately ripped


==== Log checksum FB81BCF475BB827CC483A794DCA499B8FBC641D20B45A294937CBC00F832480F ====



Create a new paste based on this one


Comments: