[ create a new paste ] login | about

Link: http://codepad.org/nlQ3oH3Z    [ raw code | fork ]

Plain Text, pasted on Nov 25:
Exact Audio Copy V0.99 prebeta 4 from 23. January 2008

EAC extraction logfile from 12. March 2010, 1:52

Chaka Khan / I Feel For You

Used drive  : ATAPI   DVD DW 8X16X8X16   Adapter: 0  ID: 2

Read mode               : Secure
Utilize accurate stream : Yes
Defeat audio cache      : Yes
Make use of C2 pointers : No

Read offset correction                      : 618
Overread into Lead-In and Lead-Out          : No
Fill up missing offset samples with silence : Yes
Delete leading and trailing silent blocks   : No
Null samples used in CRC calculations       : Yes
Used interface                              : Native Win32 interface for Win NT & 2000

Used output format : Internal WAV Routines
Sample format      : 44.100 Hz; 16 Bit; Stereo


TOC of the extracted CD

     Track |   Start  |  Length  | Start sector | End sector 
    ---------------------------------------------------------
        1  |  0:00.00 |  4:42.10 |         0    |    21159   
        2  |  4:42.10 |  4:21.25 |     21160    |    40759   
        3  |  9:03.35 |  4:42.63 |     40760    |    61972   
        4  | 13:46.23 |  4:38.67 |     61973    |    82889   
        5  | 18:25.15 |  4:27.65 |     82890    |   102979   
        6  | 22:53.05 |  5:46.05 |    102980    |   128934   
        7  | 28:39.10 |  5:16.10 |    128935    |   152644   
        8  | 33:55.20 |  4:47.03 |    152645    |   174172   
        9  | 38:42.23 |  3:47.17 |    174173    |   191214   
       10  | 42:29.40 |  4:35.48 |    191215    |   211887   


Range status and errors

Selected range

     Filename C:\BlondStyle\Chaka Khan - Original Album Series (5CD Box-Set) - 2009 (APE)\I Feel For You - 1984\Chaka Khan - I Feel For You.wav

     Peak level 100.0 %
     Range quality 99.9 %
     Test CRC 0E678BD7
     Copy CRC 0E678BD7
     Copy OK

No errors occurred

 
AccurateRip summary
 
Track  1  accurately ripped (confidence 15)  [3F0699C2]
Track  2  accurately ripped (confidence 15)  [F757AA20]
Track  3  accurately ripped (confidence 14)  [0727B9EA]
Track  4  accurately ripped (confidence 15)  [57BC60BC]
Track  5  accurately ripped (confidence 15)  [A01AFA6F]
Track  6  accurately ripped (confidence 15)  [4F1D8694]
Track  7  accurately ripped (confidence 15)  [5CAC447A]
Track  8  accurately ripped (confidence 16)  [45A5A071]
Track  9  accurately ripped (confidence 15)  [062844B4]
Track 10  accurately ripped (confidence 14)  [3A5881E4]
 
All tracks accurately ripped

End of status report



Create a new paste based on this one


Comments: