[ create a new paste ] login | about

Link: http://codepad.org/nphQnOQY    [ raw code | fork ]

Plain Text, pasted on Sep 27:
foobar2000 1.2.2 / Dynamic Range Meter 1.1.1
log date: 2013-03-01 13:33:16

--------------------------------------------------------------------------------
Analyzed: Linda Ronstadt And The Nelson Riddle Orchestra / What's New (2011 Hybrid SACD)
--------------------------------------------------------------------------------

DR         Peak         RMS     Duration Track
--------------------------------------------------------------------------------
DR12      -0.01 dB   -19.11 dB      3:55 01-What's New
DR12      -2.11 dB   -21.22 dB      3:31 02-I've Got A Crush On You
DR12      -0.75 dB   -19.42 dB      4:19 03-Guess I'll Hang My Tears Out To Dry
DR12      -0.75 dB   -18.82 dB      3:36 04-Crazy He Calls Me
DR12      -0.76 dB   -20.27 dB      4:13 05-Someone To Watch Over Me
DR12      -1.94 dB   -22.01 dB      4:09 06-I Don't Stand A Ghost Of A Chance With You
DR11      -0.76 dB   -19.47 dB      4:09 07-What'll I Do
DR12      -0.84 dB   -19.38 dB      4:23 08-Lover Man (Oh Where Can You Be)
DR12      -0.49 dB   -18.68 dB      4:51 09-Good-Bye
--------------------------------------------------------------------------------

Number of tracks:  9
Official DR value: DR12

Samplerate:        88200 Hz
Channels:          6
Bits per sample:   24
Bitrate:           7532 kbps
Codec:             FLAC
================================================================================




Create a new paste based on this one


Comments: