[ create a new paste ] login | about

Link: http://codepad.org/ns1zF5W4    [ raw code | fork ]

Plain Text, pasted on Oct 26:
foobar2000 1.6 / Dynamic Range Meter 1.1.1
log date: 2020-10-26 19:04:32

--------------------------------------------------------------------------------
Analyzed: The Guess Who  / American Woman & Share The Land 
--------------------------------------------------------------------------------

DR         Peak         RMS     Duration Track
--------------------------------------------------------------------------------
DR12      -0.87 dB   -15.89 dB      5:11 01-American Woman 
DR9       -2.37 dB   -14.11 dB      3:49 02-No Time 
DR12      -3.44 dB   -17.83 dB      5:10 03-Talisman 
DR11      -2.14 dB   -15.75 dB      4:46 04-No Sugar Tonight / New Mother Nature
DR11      -2.63 dB   -15.97 dB      2:58 05-969 The Oldest Man
DR12      -1.68 dB   -15.16 dB      3:01 06-When Friends Fall Out 
DR11      -0.65 dB   -14.62 dB      3:28 07-8:15
DR10      -1.31 dB   -14.07 dB      4:48 08-Proper Stranger 
DR9       -2.19 dB   -14.47 dB      6:14 09-Humpty's Blues / American Woman 
DR9       -0.43 dB   -12.03 dB      2:59 10-Bus Rider 
DR9       -0.67 dB   -12.62 dB      3:59 11-Do You Miss Me Darlin 
DR11      -0.64 dB   -13.67 dB      3:28 12-Hand Me Down World 
DR10      -0.74 dB   -13.90 dB      2:44 13-Moan for You Joe 
DR9       -1.12 dB   -11.77 dB      3:55 14-Share the Land 
DR9       -0.36 dB   -12.30 dB      4:13 15-Hang On to Your Life 
DR11      -0.84 dB   -14.61 dB      3:59 16-Coming Down Off the Money Bag / Song Of The Dog 
DR10      -0.65 dB   -14.02 dB      8:58 17-Three More Days 
--------------------------------------------------------------------------------

Number of tracks:  17
Official DR value: DR10

Samplerate:        88200 Hz
Channels:          2
Bits per sample:   24
Bitrate:           2737 kbps
Codec:             FLAC
================================================================================




Create a new paste based on this one


Comments: