[ create a new paste ] login | about

Link: http://codepad.org/nsAVJllS    [ raw code | fork ]

Plain Text, pasted on Aug 21:
foobar2000 1.3.17 / Dynamic Range Meter 1.1.1
log date: 2018-08-21 09:49:35

--------------------------------------------------------------------------------
Analyzed: R.E.M. / Murmur
--------------------------------------------------------------------------------

DR         Peak         RMS     Duration Track
--------------------------------------------------------------------------------
DR8       -0.71 dB    -9.62 dB      4:04 01-Radio Free Europe
DR5       -0.70 dB    -8.77 dB      4:29 02-Pilgrimage
DR8        0.00 dB    -9.50 dB      3:58 03-Laughing
DR9        0.00 dB   -10.49 dB      3:23 04-Talk About The Passion
DR6       -0.50 dB    -8.30 dB      3:31 05-Moral Kiosk
DR10       0.00 dB   -12.98 dB      3:32 06-Perfect Circle
DR8        0.00 dB    -8.86 dB      3:55 07-Catapult
DR9        0.00 dB    -9.92 dB      3:18 08-Sitting Still
DR8        0.00 dB    -9.10 dB      3:05 09-9-9
DR8        0.00 dB    -9.36 dB      4:30 10-Shaking Through
DR9        0.00 dB   -10.65 dB      3:01 11-We Walk
DR8        0.00 dB    -9.42 dB      3:17 12-West Of The Fields
--------------------------------------------------------------------------------

Number of tracks:  12
Official DR value: DR8

Samplerate:        192000 Hz
Channels:          2
Bits per sample:   24
Bitrate:           5991 kbps
Codec:             FLAC
================================================================================




Create a new paste based on this one


Comments: