[ create a new paste ] login | about

Link: http://codepad.org/nxPZ86t2    [ raw code | fork ]

Plain Text, pasted on Aug 20:
foobar2000 1.3.17 / Dynamic Range Meter 1.1.1
log date: 2018-08-20 10:03:06

--------------------------------------------------------------------------------
Analyzed: Spandau Ballet / True
--------------------------------------------------------------------------------

DR         Peak         RMS     Duration Track
--------------------------------------------------------------------------------
DR10      -5.01 dB   -17.78 dB      3:32 01-Pleasure
DR10      -5.17 dB   -16.74 dB      3:40 02-Communication
DR12      -4.60 dB   -19.31 dB      5:12 03-Code Of Love
DR10      -5.03 dB   -17.56 dB      4:50 04-Gold
DR9       -4.94 dB   -16.21 dB      3:35 05-Lifeline
DR10      -5.11 dB   -17.16 dB      4:26 06-Heaven Is A Secret
DR9       -4.92 dB   -16.40 dB      4:08 07-Foundation
DR11      -5.01 dB   -18.96 dB      6:33 08-True
--------------------------------------------------------------------------------

Number of tracks:  8
Official DR value: DR10

Samplerate:        2822400 Hz / PCM Samplerate: 176400 Hz
Channels:          2
Bits per sample:   1
Bitrate:           5645 kbps
Codec:             DSD64
================================================================================




Create a new paste based on this one


Comments: