[ create a new paste ] login | about

Link: http://codepad.org/nzonZ115    [ raw code | fork ]

Plain Text, pasted on Apr 1:
foobar2000 1.5 / Dynamic Range Meter 1.1.1
log date: 2020-04-01 06:47:37

--------------------------------------------------------------------------------
Analyzed: Foreigner / Double Vision
--------------------------------------------------------------------------------

DR         Peak         RMS     Duration Track
--------------------------------------------------------------------------------
DR13      -0.46 dB   -15.05 dB      4:25 01-Hot Blooded
DR12      -2.57 dB   -16.57 dB      3:09 02-Blue Morning, Blue Day
DR13      -1.89 dB   -18.59 dB      3:21 03-You're All I Am
DR12      -1.10 dB   -15.77 dB      3:13 04-Back Where You Belong
DR14      -0.05 dB   -16.45 dB      3:27 05-Love Has Taken Its Toll
DR14      -0.32 dB   -16.73 dB      3:42 06-Double Vision
DR11      -2.33 dB   -16.11 dB      3:53 07-Tramontane
DR12      -2.43 dB   -17.08 dB      4:07 08-I Have Waited So Long
DR13      -0.05 dB   -15.13 dB      3:33 09-Lonely Children
DR13      -0.05 dB   -17.27 dB      4:46 10-Spellbinder
--------------------------------------------------------------------------------

Number of tracks:  10
Official DR value: DR13

Samplerate:        96000 Hz
Channels:          2
Bits per sample:   24
Bitrate:           2949 kbps
Codec:             FLAC
================================================================================




Create a new paste based on this one


Comments: