[ create a new paste ] login | about

Link: http://codepad.org/o4L1oqoP    [ raw code | fork ]

Plain Text, pasted on Sep 4:
[CUETools log; Date: 9/3/2019 8:23:42 PM; Version: 2.1.5]
[CTDB TOCID: KyjLXvwj3r.QtUZ3RNgmOyQYCgs-] found.
Track | CTDB Status
  1   | (126/127) Accurately ripped
  2   | (126/127) Accurately ripped
  3   | (126/127) Accurately ripped
  4   | (125/127) Accurately ripped
  5   | (125/127) Accurately ripped
  6   | (126/127) Accurately ripped
  7   | (126/127) Accurately ripped
  8   | (125/127) Accurately ripped
  9   | (126/127) Accurately ripped
 10   | (124/127) Accurately ripped
 11   | (125/127) Accurately ripped
 12   | (126/127) Accurately ripped
 13   | (125/127) Accurately ripped
 14   | (126/127) Accurately ripped
 15   | (126/127) Accurately ripped
 16   | (126/127) Accurately ripped
 17   | (126/127) Accurately ripped
 18   | (123/127) Accurately ripped
[AccurateRip ID: 002ce8ee-0252c311-010ff212] found.
Track   [  CRC   |   V2   ] Status
 01     [47a7b0cd|24d8e765] (03+89/92) Accurately ripped
 02     [c4a257d6|9fdaa8f0] (03+89/92) Accurately ripped
 03     [f4f918db|4109cdbe] (03+89/92) Accurately ripped
 04     [2c7ad6cf|c72929ce] (03+89/92) Accurately ripped
 05     [e7610878|a2ba7907] (03+89/92) Accurately ripped
 06     [b2f38223|c3f86148] (03+89/92) Accurately ripped
 07     [d1400c00|4e41b92a] (03+89/92) Accurately ripped
 08     [ce72ab3e|484f3a17] (03+89/92) Accurately ripped
 09     [46aafb5c|6399c736] (03+89/92) Accurately ripped
 10     [30bbd9ae|09c7abcb] (03+89/92) Accurately ripped
 11     [8f7b083b|861e98c9] (03+89/92) Accurately ripped
 12     [904033b1|25b80761] (03+89/92) Accurately ripped
 13     [ad48a30a|c5f2529f] (03+89/92) Accurately ripped
 14     [62233413|4498952d] (03+89/92) Accurately ripped
 15     [e1d341b0|b544ae6c] (03+89/92) Accurately ripped
 16     [81cff59c|d0263a5a] (03+89/92) Accurately ripped
 17     [d27bb77d|8601ba77] (03+89/92) Accurately ripped
 18     [8d37eac3|3a081168] (03+87/90) Accurately ripped

Track Peak [ CRC32  ] [W/O NULL] [  LOG   ]
 --  100.0 [0C79386D] [CBC22AF1]           
 01  100.0 [5E1F2BFF] [07DF2B37]   CRC32   
 02  100.0 [BDFACE93] [C2173607]   CRC32   
 03   99.9 [6B80AF0B] [3AA4CBC3]   CRC32   
 04  100.0 [7D2B271A] [2D5B2F88]   CRC32   
 05  100.0 [5D79405D] [C55BCBB2]   CRC32   
 06  100.0 [6A2C1025] [F8B49C77]   CRC32   
 07  100.0 [B81C2BBB] [DA157429]   CRC32   
 08  100.0 [ADEC35A3] [6B6297B1]   CRC32   
 09   97.0 [B4F64088] [558EAC63]   CRC32   
 10   99.9 [0730FC77] [21EDC20B]   CRC32   
 11   99.9 [05C9B945] [D378C02A]   CRC32   
 12  100.0 [999B82A6] [3599A580]   CRC32   
 13  100.0 [AC8D57ED] [9B0CF7A3]   CRC32   
 14  100.0 [84BA1931] [0035A6F9]   CRC32   
 15   99.9 [E54F7B8E] [3EB51996]   CRC32   
 16   99.9 [07D84405] [9EB8209A]   CRC32   
 17  100.0 [9E302349] [6498D514]   CRC32   
 18   99.9 [3342E407] [03AF1CDE]   CRC32   



Create a new paste based on this one


Comments: