[ create a new paste ] login | about

Link: http://codepad.org/o61cRg6D    [ raw code | fork ]

Plain Text, pasted on Jul 23:
foobar2000 1.3.12 / Dynamic Range Meter 1.1.1
log date: 2016-12-14 21:46:32

--------------------------------------------------------------------------------
Analyzed: Fiona Joy Hawkins / Christmas Joy
--------------------------------------------------------------------------------

DR         Peak         RMS     Duration Track
--------------------------------------------------------------------------------
DR11      -0.12 dB   -15.92 dB      6:09 01-Walking In The Air
DR13      -0.12 dB   -16.89 dB      5:33 02-Still Still Still
DR15      -0.12 dB   -19.12 dB      6:06 03-Silent Night
DR13      -0.12 dB   -15.27 dB      4:48 04-Jingle Bells
DR12      -0.80 dB   -16.63 dB      6:04 05-Gliding On A Sleigh
DR12      -0.40 dB   -18.47 dB      3:24 06-A Christmas Wedding
DR14      -0.14 dB   -19.34 dB      5:21 07-O Come O Come Emmanuel
DR14      -1.85 dB   -19.46 dB      4:42 08-Flight Of The Snowbird
DR12      -0.20 dB   -17.29 dB      4:14 09-The Holly And The Ivy
DR12      -0.12 dB   -15.64 dB      5:51 10-Christmas Joy
DR15      -0.12 dB   -19.35 dB      4:00 11-Away In A Manger
--------------------------------------------------------------------------------

Number of tracks:  11
Official DR value: DR13

Samplerate:        88200 Hz
Channels:          2
Bits per sample:   24
Bitrate:           2195 kbps
Codec:             FLAC
================================================================================




Create a new paste based on this one


Comments: