[ create a new paste ] login | about

Link: http://codepad.org/o7KCgOYm    [ raw code | fork ]

Plain Text, pasted on Apr 17:
foobar2000 1.3.12 / Dynamic Range Meter 1.1.1
log date: 2016-10-22 18:32:44

--------------------------------------------------------------------------------
Analyzed: Stealers Wheel / Stealers Wheel (2016 IR Hybrid SACD)
--------------------------------------------------------------------------------

DR         Peak         RMS     Duration Track
--------------------------------------------------------------------------------
DR14      -0.96 dB   -17.05 dB      3:16 01-Late Again
DR15      -0.01 dB   -16.47 dB      3:28 02-Stuck In The Middle With You
DR12      -4.13 dB   -19.89 dB      2:59 03-Another Meaning
DR14      -1.60 dB   -17.96 dB      3:17 04-I Get By
DR15      -0.12 dB   -17.54 dB      3:55 05-Outside Looking In
DR14      -1.38 dB   -17.41 dB      3:47 06-Johnny's Song
DR12      -2.64 dB   -18.17 dB      3:39 07-Next To Me
DR13      -1.97 dB   -18.35 dB      3:25 08-José
DR12      -7.87 dB   -21.99 dB      2:58 09-Gets So Lonely
DR13      -1.69 dB   -16.81 dB      3:54 10-You Put Something Better Inside Me
--------------------------------------------------------------------------------

Number of tracks:  10
Official DR value: DR13

Samplerate:        88200 Hz
Channels:          2
Bits per sample:   24
Bitrate:           2733 kbps
Codec:             FLAC
================================================================================




Create a new paste based on this one


Comments: