[ create a new paste ] login | about

Link: http://codepad.org/o7Tu0HbX    [ raw code | fork ]

Plain Text, pasted on Nov 4:
foobar2000 1.6 / Dynamic Range Meter 1.1.1
log date: 2020-11-04 05:04:19

--------------------------------------------------------------------------------
Analyzed: ? / ?
--------------------------------------------------------------------------------

DR         Peak         RMS     Duration Track
--------------------------------------------------------------------------------
DR11      -5.08 dB   -17.46 dB      4:59 01-Take Five (Take Another Five)
DR10      -5.45 dB   -17.83 dB      5:38 02-Sacred Kind Of Love
DR10      -4.62 dB   -16.32 dB      5:13 03-Only For You (Siempre Para Ti Sere)
DR10      -5.02 dB   -17.96 dB      4:00 04-Please Send Me Someone To Love
DR12      -4.97 dB   -18.59 dB      4:23 05-Strawberry Moon
DR12      -0.02 dB   -18.45 dB      6:13 06-Summer Nights
DR11      -4.95 dB   -17.34 dB      3:31 07-Heat Index
DR11      -5.17 dB   -17.87 dB      5:07 08-Next Exit
DR11      -5.14 dB   -19.60 dB      8:27 09-Blues For DP
DR12      -5.24 dB   -19.10 dB      3:20 10-Soulful Strut (The Top Down Version)
DR9       -5.13 dB   -15.93 dB      4:24 11-The Love In His Infant Eyes
DR9       -5.00 dB   -15.46 dB      3:05 12-The Night Fantastic
DR10      -5.14 dB   -17.29 dB      5:14 13-Protect The Dream
--------------------------------------------------------------------------------

Number of tracks:  13
Official DR value: DR11

Samplerate:        2822400 Hz / PCM Samplerate: 176400 Hz
Channels:          2
Bits per sample:   1
Bitrate:           5645 kbps
Codec:             DSD64
================================================================================




Create a new paste based on this one


Comments: