[ create a new paste ] login | about

Link: http://codepad.org/o90Vkh0H    [ raw code | fork ]

Plain Text, pasted on Dec 21:
foobar2000 1.6 / Dynamic Range Meter 1.1.1
log date: 2020-12-21 19:14:52

--------------------------------------------------------------------------------
Analyzed: Vox Aurea / Sanna Salminen / Matkalla Jouluun / A Journey Into Christmas (Hybrid SACD)
--------------------------------------------------------------------------------

DR         Peak         RMS     Duration Track
--------------------------------------------------------------------------------
DR13      -8.27 dB   -27.17 dB      3:27 01-Tulemme Jeesus Pienoises
DR13      -0.89 dB   -25.60 dB      2:45 02-O Scholares, Voce Pares / Gaudete
DR13      -6.78 dB   -27.06 dB      3:07 03-Psallat Scholarum (Jo Valkee Aamun Tullen Yö)
DR13      -4.46 dB   -24.39 dB      2:28 04-Joulun Kellot
DR13      -7.13 dB   -27.18 dB      2:14 05-Hetki Hiljaisuutta
DR13     -10.21 dB   -29.14 dB      1:41 06-Kilisee, Kilisee Kulkunen
DR14      -5.27 dB   -27.21 dB      3:30 07-Varpunen Jouluaamuna
DR12      -7.30 dB   -30.79 dB      2:10 08-Enkelten Laulu
DR12      -9.72 dB   -28.50 dB      2:08 09-A Minuit Fut Fait Un Réveil (Oi Jouluyö)
DR13      -7.58 dB   -25.83 dB      3:21 10-Quanno Nascette Ninno (Kun Syntyi Lapsonen)
DR13      -1.20 dB   -22.19 dB      2:38 11-Ding Dong! Merrily On High
DR14      -2.01 dB   -23.56 dB      2:12 12-Mary Had A Baby
DR12      -7.97 dB   -24.48 dB      2:11 13-Ilo Täytti Maailman (Sweet Little Jesus Baby)
DR13      -0.19 dB   -22.82 dB      2:53 14-La Jornada (Matkalla)
DR12      -6.87 dB   -24.03 dB      2:39 15-La Jornada (Matkalla)
DR13      -4.59 dB   -22.64 dB      2:54 16-Bolingo Bwa Nzambe
DR14      -0.19 dB   -19.39 dB      1:44 17-Singaba Hamba Yothina / A Child Is Born To Us
DR15      -4.91 dB   -27.35 dB      3:45 18-Jouluyö, Juhlayö (Stille Nacht, Heilige Nacht)
DR13      -0.16 dB   -20.56 dB      5:15 19-Oi Jouluyö (O Holy Night)
--------------------------------------------------------------------------------

Number of tracks:  19
Official DR value: DR13

Samplerate:        88200 Hz
Channels:          6
Bits per sample:   24
Bitrate:           5714 kbps
Codec:             FLAC
================================================================================




Create a new paste based on this one


Comments: