[ create a new paste ] login | about

Link: http://codepad.org/oAEQlIlZ    [ raw code | fork ]

Plain Text, pasted on Apr 12:
EAC extraction logfile from 1. February 2008, 13:44 for CD
Steppenwolf / Steppenwolf

Used drive  : _NEC    DVD+-RW ND-6650A   Adapter: 1  ID: 0
Read mode   : Secure with NO C2, accurate stream, disable cache
Read offset correction : 48
Overread into Lead-In and Lead-Out : No

Used output format : C:\Program Files\Exact Audio Copy\flac-1.1.4-win\bin\flac.exe   (User Defined Encoder)
                     192 kBit/s
                     Additional command line options : # -8 -A tukey(0.25) -A gauss(0.1875) -b 4096 -V -T "artist=%a" -T "title=%t" -T "album=%g" -T "date=%y" -T "tracknumber=%n" -T "genre=%m" %s --sector-align

Other options      : 
    Fill up missing offset samples with silence : Yes
    Delete leading and trailing silent blocks : No
    Installed external ASPI interface


Track  1
     Filename E:\Music\Steppenwolf - Steppenwolf (Hoffman Master)\01 - Steppenwolf - Sookie Sookie.wav

     Pre-gap length  0:00:02.00

     Peak level 97.7 %
     Track quality 99.9 %
     Test CRC 3850CFA9
     Copy CRC 3850CFA9
     Copy OK

Track  2
     Filename E:\Music\Steppenwolf - Steppenwolf (Hoffman Master)\02 - Steppenwolf - Everybody's Next One.wav

     Pre-gap length  0:00:03.02

     Peak level 92.8 %
     Track quality 100.0 %
     Test CRC 71ED924B
     Copy CRC 71ED924B
     Copy OK

Track  3
     Filename E:\Music\Steppenwolf - Steppenwolf (Hoffman Master)\03 - Steppenwolf - Berry Rides Again.wav

     Pre-gap length  0:00:03.36

     Peak level 92.8 %
     Track quality 100.0 %
     Test CRC E6FAE628
     Copy CRC E6FAE628
     Copy OK

Track  4
     Filename E:\Music\Steppenwolf - Steppenwolf (Hoffman Master)\04 - Steppenwolf - Hoochie Coochie Man.wav

     Pre-gap length  0:00:03.57

     Peak level 94.6 %
     Track quality 100.0 %
     Test CRC 4D927CC0
     Copy CRC 4D927CC0
     Copy OK

Track  5
     Filename E:\Music\Steppenwolf - Steppenwolf (Hoffman Master)\05 - Steppenwolf - Born to be Wild.wav

     Pre-gap length  0:00:03.46

     Peak level 89.5 %
     Track quality 100.0 %
     Test CRC B5A3339C
     Copy CRC B5A3339C
     Copy OK

Track  6
     Filename E:\Music\Steppenwolf - Steppenwolf (Hoffman Master)\06 - Steppenwolf - Your Wall's Too High.wav

     Pre-gap length  0:00:03.69

     Peak level 97.7 %
     Track quality 99.9 %
     Test CRC 8D4ED43E
     Copy CRC 8D4ED43E
     Copy OK

Track  7
     Filename E:\Music\Steppenwolf - Steppenwolf (Hoffman Master)\07 - Steppenwolf - Desperation.wav

     Pre-gap length  0:00:03.33

     Peak level 96.1 %
     Track quality 100.0 %
     Test CRC 0068F8AA
     Copy CRC 0068F8AA
     Copy OK

Track  8
     Filename E:\Music\Steppenwolf - Steppenwolf (Hoffman Master)\08 - Steppenwolf - The Pusher.wav

     Pre-gap length  0:00:03.53

     Peak level 90.6 %
     Track quality 100.0 %
     Test CRC 2E1C3C64
     Copy CRC 2E1C3C64
     Copy OK

Track  9
     Filename E:\Music\Steppenwolf - Steppenwolf (Hoffman Master)\09 - Steppenwolf - A Girl I Knew.wav

     Pre-gap length  0:00:03.76

     Peak level 97.7 %
     Track quality 100.0 %
     Test CRC 436C3CDB
     Copy CRC 436C3CDB
     Copy OK

Track 10
     Filename E:\Music\Steppenwolf - Steppenwolf (Hoffman Master)\10 - Steppenwolf - Take What You Need.wav

     Pre-gap length  0:00:03.80

     Peak level 79.9 %
     Track quality 100.0 %
     Test CRC 0980F3C5
     Copy CRC 0980F3C5
     Copy OK

Track 11
     Filename E:\Music\Steppenwolf - Steppenwolf (Hoffman Master)\11 - Steppenwolf - The Ostrich.wav

     Pre-gap length  0:00:03.33

     Peak level 90.8 %
     Track quality 100.0 %
     Test CRC B162ABE7
     Copy CRC B162ABE7
     Copy OK

No errors occured


End of status report



Create a new paste based on this one


Comments: