[ create a new paste ] login | about

Link: http://codepad.org/oD6ou0p6    [ raw code | fork ]

Plain Text, pasted on Aug 9:
X Lossless Decoder version 20181019 (151.1)

XLD extraction logfile from 2019-03-29 11:50:08 -0400

Sarah Vaughan / Live In Japan

Used drive : MATSHITA DVD-R   UJ-898 (revision HE13)
Media type : Pressed CD

Ripper mode             : XLD Secure Ripper
Disable audio cache     : OK for the drive with a cache less than 1375KiB
Make use of C2 pointers : NO
Read offset correction  : 102
Max retry count         : 100
Gap status              : Analyzed, Appended (except HTOA)

TOC of the extracted CD
     Track |   Start  |  Length  | Start sector | End sector 
    ---------------------------------------------------------
        1  | 00:00:37 | 07:00:68 |        37    |    31604   
        2  | 07:01:30 | 03:32:00 |     31605    |    47504   
        3  | 10:33:30 | 03:02:00 |     47505    |    61154   
        4  | 13:35:30 | 01:37:62 |     61155    |    68491   
        5  | 15:13:17 | 03:59:13 |     68492    |    86429   
        6  | 19:12:30 | 07:30:00 |     86430    |   120179   
        7  | 26:42:30 | 05:11:00 |    120180    |   143504   
        8  | 31:53:30 | 04:00:00 |    143505    |   161504   
        9  | 35:53:30 | 06:11:00 |    161505    |   189329   
       10  | 42:04:30 | 01:57:00 |    189330    |   198104   
       11  | 44:01:30 | 07:43:37 |    198105    |   232866   
       12  | 51:44:67 | 01:09:20 |    232867    |   238061   
       13  | 52:54:12 | 03:31:18 |    238062    |   253904   

AccurateRip Summary (DiscID: 001bf6eb-0116c98a-a40d390d)
    Track 01 : OK (v1+v2, confidence 14/14)
    Track 02 : OK (v1+v2, confidence 14/14)
    Track 03 : OK (v1+v2, confidence 15/15)
    Track 04 : OK (v1+v2, confidence 15/15)
    Track 05 : OK (v1+v2, confidence 15/15)
    Track 06 : OK (v1+v2, confidence 15/15)
    Track 07 : OK (v1+v2, confidence 15/15)
    Track 08 : OK (v1+v2, confidence 15/15)
    Track 09 : OK (v1+v2, confidence 14/14)
    Track 10 : OK (v1+v2, confidence 15/15)
    Track 11 : OK (v1+v2, confidence 15/15)
    Track 12 : OK (v1+v2, confidence 15/15)
    Track 13 : OK (v1+v2, confidence 14/14)
        ->All tracks accurately ripped.

All Tracks
    Album gain               : -2.36 dB
    Peak                     : 0.999969
    Statistics
        Read error                           : 0
        Jitter error (maybe fixed)           : 0
        Retry sector count                   : 0
        Damaged sector count                 : 0

Track 01
    Filename : /Users/Rips/Sarah Vaughan - Live In Japan (1973) [FLAC]/01 The Nearness Of You.flac
    Pre-gap length : 00:02:37

    Track gain               : 1.75 dB
    Peak                     : 0.762970
    CRC32 hash (test run)    : 82D49295
    CRC32 hash               : 82D49295
    CRC32 hash (skip zero)   : ACCEAC0B
    AccurateRip v1 signature : 26D239CB
    AccurateRip v2 signature : C762877C
        ->Accurately ripped (v1+v2, confidence 6+8/14)
    Statistics
        Read error                           : 0
        Jitter error (maybe fixed)           : 0
        Retry sector count                   : 0
        Damaged sector count                 : 0

Track 02
    Filename : /Users/Rips/Sarah Vaughan - Live In Japan (1973) [FLAC]/02 I'll Remember April.flac

    Track gain               : -1.96 dB
    Peak                     : 0.768311
    CRC32 hash (test run)    : 24DB0760
    CRC32 hash               : 24DB0760
    CRC32 hash (skip zero)   : B47FE9AF
    AccurateRip v1 signature : 84639A30
    AccurateRip v2 signature : E70BA8AE
        ->Accurately ripped (v1+v2, confidence 5+9/14)
    Statistics
        Read error                           : 0
        Jitter error (maybe fixed)           : 0
        Retry sector count                   : 0
        Damaged sector count                 : 0

Track 03
    Filename : /Users/Rips/Sarah Vaughan - Live In Japan (1973) [FLAC]/03 Watch What Happens.flac

    Track gain               : -4.56 dB
    Peak                     : 0.785156
    CRC32 hash (test run)    : 554E43DB
    CRC32 hash               : 554E43DB
    CRC32 hash (skip zero)   : 3D060A2D
    AccurateRip v1 signature : 95413514
    AccurateRip v2 signature : 905251B3
        ->Accurately ripped (v1+v2, confidence 6+9/15)
    Statistics
        Read error                           : 0
        Jitter error (maybe fixed)           : 0
        Retry sector count                   : 0
        Damaged sector count                 : 0

Track 04
    Filename : /Users/Rips/Sarah Vaughan - Live In Japan (1973) [FLAC]/04 I Cried For You.flac

    Track gain               : -3.66 dB
    Peak                     : 0.999969
    CRC32 hash (test run)    : BD1357E6
    CRC32 hash               : BD1357E6
    CRC32 hash (skip zero)   : A9E52497
    AccurateRip v1 signature : 0D2C5E3B
    AccurateRip v2 signature : 3D259AFB
        ->Accurately ripped (v1+v2, confidence 6+9/15)
    Statistics
        Read error                           : 0
        Jitter error (maybe fixed)           : 0
        Retry sector count                   : 0
        Damaged sector count                 : 0

Track 05
    Filename : /Users/Rips/Sarah Vaughan - Live In Japan (1973) [FLAC]/05 Summertime.flac

    Track gain               : 0.27 dB
    Peak                     : 0.858643
    CRC32 hash (test run)    : 22E5A965
    CRC32 hash               : 22E5A965
    CRC32 hash (skip zero)   : 0B7EBEF5
    AccurateRip v1 signature : 564F7CA3
    AccurateRip v2 signature : 21A07C69
        ->Accurately ripped (v1+v2, confidence 6+9/15)
    Statistics
        Read error                           : 0
        Jitter error (maybe fixed)           : 0
        Retry sector count                   : 0
        Damaged sector count                 : 0

Track 06
    Filename : /Users/Rips/Sarah Vaughan - Live In Japan (1973) [FLAC]/06 The Blues.flac

    Track gain               : -3.23 dB
    Peak                     : 0.999969
    CRC32 hash (test run)    : 54CFF195
    CRC32 hash               : 54CFF195
    CRC32 hash (skip zero)   : 15A2F4B7
    AccurateRip v1 signature : 4D220D01
    AccurateRip v2 signature : 1464E38E
        ->Accurately ripped (v1+v2, confidence 6+9/15)
    Statistics
        Read error                           : 0
        Jitter error (maybe fixed)           : 0
        Retry sector count                   : 0
        Damaged sector count                 : 0

Track 07
    Filename : /Users/Rips/Sarah Vaughan - Live In Japan (1973) [FLAC]/07 I Remember You.flac

    Track gain               : 1.88 dB
    Peak                     : 0.910370
    CRC32 hash (test run)    : EEAF516B
    CRC32 hash               : EEAF516B
    CRC32 hash (skip zero)   : 030E9A06
    AccurateRip v1 signature : B362BBBB
    AccurateRip v2 signature : 8753C78D
        ->Accurately ripped (v1+v2, confidence 6+9/15)
    Statistics
        Read error                           : 0
        Jitter error (maybe fixed)           : 0
        Retry sector count                   : 0
        Damaged sector count                 : 0

Track 08
    Filename : /Users/Rips/Sarah Vaughan - Live In Japan (1973) [FLAC]/08 There Is No Greater Love.flac

    Track gain               : 0.30 dB
    Peak                     : 0.783173
    CRC32 hash (test run)    : 85F3EED0
    CRC32 hash               : 85F3EED0
    CRC32 hash (skip zero)   : 25CDBDC9
    AccurateRip v1 signature : B87CB16E
    AccurateRip v2 signature : 1F00DAE3
        ->Accurately ripped (v1+v2, confidence 6+9/15)
    Statistics
        Read error                           : 0
        Jitter error (maybe fixed)           : 0
        Retry sector count                   : 0
        Damaged sector count                 : 0

Track 09
    Filename : /Users/Rips/Sarah Vaughan - Live In Japan (1973) [FLAC]/09 Rainy Days And Mondays.flac

    Track gain               : 2.77 dB
    Peak                     : 0.796600
    CRC32 hash (test run)    : 83EC4B8F
    CRC32 hash               : 83EC4B8F
    CRC32 hash (skip zero)   : 9DA4D210
    AccurateRip v1 signature : 5DAF0EB3
    AccurateRip v2 signature : 15F5B752
        ->Accurately ripped (v1+v2, confidence 5+9/14)
    Statistics
        Read error                           : 0
        Jitter error (maybe fixed)           : 0
        Retry sector count                   : 0
        Damaged sector count                 : 0

Track 10
    Filename : /Users/Rips/Sarah Vaughan - Live In Japan (1973) [FLAC]/10 On A Clear Day.flac

    Track gain               : -2.70 dB
    Peak                     : 0.999969
    CRC32 hash (test run)    : EE36001B
    CRC32 hash               : EE36001B
    CRC32 hash (skip zero)   : 8682D182
    AccurateRip v1 signature : 22FB9E7E
    AccurateRip v2 signature : DDBE4819
        ->Accurately ripped (v1+v2, confidence 6+9/15)
    Statistics
        Read error                           : 0
        Jitter error (maybe fixed)           : 0
        Retry sector count                   : 0
        Damaged sector count                 : 0

Track 11
    Filename : /Users/Rips/Sarah Vaughan - Live In Japan (1973) [FLAC]/11 Bye Bye Blackbird.flac

    Track gain               : -3.88 dB
    Peak                     : 0.779388
    CRC32 hash (test run)    : E3A97E28
    CRC32 hash               : E3A97E28
    CRC32 hash (skip zero)   : 9AC1DEFF
    AccurateRip v1 signature : ACA51C5F
    AccurateRip v2 signature : F171B43F
        ->Accurately ripped (v1+v2, confidence 6+9/15)
    Statistics
        Read error                           : 0
        Jitter error (maybe fixed)           : 0
        Retry sector count                   : 0
        Damaged sector count                 : 0

Track 12
    Filename : /Users/Rips/Sarah Vaughan - Live In Japan (1973) [FLAC]/12 Tonight.flac
    Pre-gap length : 00:01:00

    Track gain               : -4.17 dB
    Peak                     : 0.975006
    CRC32 hash (test run)    : AB2671AE
    CRC32 hash               : AB2671AE
    CRC32 hash (skip zero)   : F437F145
    AccurateRip v1 signature : F2F4FD10
    AccurateRip v2 signature : 69CAE795
        ->Accurately ripped (v1+v2, confidence 6+9/15)
    Statistics
        Read error                           : 0
        Jitter error (maybe fixed)           : 0
        Retry sector count                   : 0
        Damaged sector count                 : 0

Track 13
    Filename : /Users/Rips/Sarah Vaughan - Live In Japan (1973) [FLAC]/13 Tenderly.flac

    Track gain               : -2.98 dB
    Peak                     : 0.998596
    CRC32 hash (test run)    : A015F003
    CRC32 hash               : A015F003
    CRC32 hash (skip zero)   : C3BADB92
    AccurateRip v1 signature : 50489943
    AccurateRip v2 signature : 501AC145
        ->Accurately ripped (v1+v2, confidence 5+9/14)
    Statistics
        Read error                           : 0
        Jitter error (maybe fixed)           : 0
        Retry sector count                   : 0
        Damaged sector count                 : 0

No errors occurred

End of status report

-----BEGIN XLD SIGNATURE-----
L0GllYtcAs_LrrymFQZmgw0Utxcr1CHrtNIqvLERAxJTgKyWDZnfKU52l_sivKYE97IZX0KTFTIhPPmc4AmSoun.Q08fOIzDef_Jpq8
-----END XLD SIGNATURE-----



Create a new paste based on this one


Comments: