[ create a new paste ] login | about

Link: http://codepad.org/oE4H5x7d    [ raw code | fork ]

Plain Text, pasted on Oct 29:
foobar2000 1.6 / Dynamic Range Meter 1.1.1
log date: 2020-10-20 02:13:16

--------------------------------------------------------------------------------
Analyzed: B W Stevenson  / My Maria & Calabasas 
--------------------------------------------------------------------------------

DR         Peak         RMS     Duration Track
--------------------------------------------------------------------------------
DR9       -6.23 dB   -26.17 dB      2:40 01-My Maria 
DR9       -6.58 dB   -25.65 dB      2:42 02-Be My Woman Tonight 
DR9       -7.95 dB   -27.25 dB      3:37 03-Sunset Woman 
DR9       -7.32 dB   -25.97 dB      2:33 04-A Good Love Is Like a Good Song 
DR9       -6.71 dB   -25.53 dB      2:54 05-Grab On Hold of My Soul 
DR8       -7.07 dB   -25.29 dB      2:31 06-Shambala 
DR9       -8.12 dB   -27.25 dB      3:22 07-Lucky Touch 
DR9       -7.86 dB   -25.87 dB      3:21 08-I Got to Boogie 
DR8       -9.04 dB   -27.03 dB      3:54 09-Remember Me 
DR10     -10.67 dB   -31.86 dB      1:28 10-Pass This Way 
DR8       -6.79 dB   -26.20 dB      3:12 11-Look for the Light 
DR9       -6.76 dB   -26.98 dB      2:51 12-Little Bit of Understanding 
DR9       -7.38 dB   -29.17 dB      2:34 13-We Had It All 
DR10      -6.07 dB   -24.57 dB      3:46 14-Livin It Day by Day
DR9       -6.64 dB   -24.99 dB      3:10 15-Dry Land 
DR9       -6.31 dB   -25.54 dB      2:35 16-Anna Lisa
DR9       -5.74 dB   -27.28 dB      3:58 17-Please Come to Boston 
DR9       -6.71 dB   -26.36 dB      3:09 18-Roll On 
DR9       -8.00 dB   -28.36 dB      2:54 19-Song for Katy 
DR9       -6.10 dB   -27.81 dB      4:12 20-Here We Go Again 
--------------------------------------------------------------------------------

Number of tracks:  20
Official DR value: DR9

Samplerate:        2822400 Hz / PCM Samplerate: 176400 Hz
Channels:          6
Bits per sample:   1
Bitrate:           16934 kbps
Codec:             DST64
================================================================================

--------------------------------------------------------------------------------
Analyzed: B W Stevenson  / My Maria & Calabasas 
--------------------------------------------------------------------------------

DR         Peak         RMS     Duration Track
--------------------------------------------------------------------------------
DR13      -5.86 dB   -21.20 dB      2:29 01-My Maria 
DR14      -6.41 dB   -22.02 dB      2:38 02-Be My Woman Tonight 
DR13      -8.48 dB   -23.23 dB      3:35 03-Sunset Woman 
DR12      -7.67 dB   -22.04 dB      2:30 04-A Good Love Is Like a Good Song 
DR13      -6.54 dB   -21.46 dB      2:55 05-Grab On Hold of My Soul 
DR13      -5.72 dB   -21.74 dB      2:31 06-Shambala 
DR12      -7.89 dB   -22.58 dB      3:18 07-Lucky Touch 
DR14      -6.20 dB   -22.25 dB      3:04 08-I Got to Boogie 
DR12     -10.07 dB   -25.04 dB      3:50 09-Remember Me 
DR13     -11.00 dB   -28.15 dB      1:39 10-Pass This Way 
DR12      -5.87 dB   -21.91 dB      3:12 11-Look for the Light 
DR12      -7.44 dB   -21.24 dB      2:48 12-Little Bit of Understanding 
DR12      -8.55 dB   -23.75 dB      2:32 13-We Had It All 
DR12      -7.36 dB   -21.15 dB      3:45 14-Livin It Day by Day
DR11      -8.37 dB   -21.21 dB      3:07 15-Dry Land 
DR12      -8.24 dB   -21.77 dB      2:36 16-Anna Lisa
DR13      -6.91 dB   -23.01 dB      3:58 17-Please Come to Boston 
DR12      -8.39 dB   -21.65 dB      3:07 18-Roll On 
DR13      -9.19 dB   -24.44 dB      2:51 19-Song for Katy 
DR12      -7.86 dB   -23.47 dB      3:59 20-Here We Go Again 
--------------------------------------------------------------------------------

Number of tracks:  20
Official DR value: DR13

Samplerate:        2822400 Hz / PCM Samplerate: 176400 Hz
Channels:          2
Bits per sample:   1
Bitrate:           5645 kbps
Codec:             DST64
================================================================================




Create a new paste based on this one


Comments: