[ create a new paste ] login | about

Link: http://codepad.org/oEL0U6yB    [ raw code | fork ]

Plain Text, pasted on Oct 21:
foobar2000 1.3.10 / Dynamic Range Meter 1.1.1
log date: 2016-10-21 09:10:01

--------------------------------------------------------------------------------
Analyzed: Green Day / Revolution Radio
--------------------------------------------------------------------------------

DR         Peak         RMS     Duration Track
--------------------------------------------------------------------------------
DR5       -0.02 dB    -7.00 dB      4:09 01-Somewhere Now
DR4       -0.02 dB    -5.30 dB      3:25 02-Bang Bang
DR5       -0.02 dB    -6.27 dB      3:01 03-Revolution Radio
DR5       -0.02 dB    -5.85 dB      3:39 04-Say Goodbye
DR5        0.00 dB    -7.16 dB      5:02 05-Outlaws
DR5       -0.02 dB    -6.20 dB      2:40 06-Bouncing Off the Wall
DR4       -0.02 dB    -6.74 dB      3:45 07-Still Breathing
DR4       -0.02 dB    -6.05 dB      2:33 08-Youngblood
DR5       -0.02 dB    -6.69 dB      3:24 09-Too Dumb to Die
DR4        0.00 dB    -5.36 dB      3:05 10-Troubled Times
DR4       -0.02 dB    -5.45 dB      6:52 11-Forever Now
DR8       -1.97 dB   -12.13 dB      3:03 12-Ordinary World
--------------------------------------------------------------------------------

Number of tracks:  12
Official DR value: DR5

Samplerate:        44100 Hz
Channels:          2
Bits per sample:   16
Bitrate:           730 kbps
Codec:             FLAC
================================================================================




Create a new paste based on this one


Comments: