[ create a new paste ] login | about

Link: http://codepad.org/oI4I5TBx    [ raw code | fork ]

Plain Text, pasted on May 4:
foobar2000 1.3.17 / Dynamic Range Meter 1.1.1
log date: 2018-05-04 10:48:57

--------------------------------------------------------------------------------
Analyzed: Pink Floyd / The Piper At The Gates Of Dawn [2018 Record Store Day Mono Vinyl]
--------------------------------------------------------------------------------

DR         Peak         RMS     Duration Track
--------------------------------------------------------------------------------
DR8       -1.37 dB   -12.63 dB      4:16 01-Astronomy Domine
DR10      -1.54 dB   -12.80 dB      3:09 02-Lucifer Sam
DR10      -1.31 dB   -13.10 dB      3:04 03-Matilda Mother
DR9       -0.40 dB   -13.53 dB      2:46 04-Flaming
DR9       -2.42 dB   -13.01 dB      4:24 05-Pow R. Toc H-
DR9       -1.43 dB   -11.94 dB      3:07 06-Take Up Thy Stethoscope And Walk
DR9       -1.69 dB   -12.25 dB      9:39 07-Interstellar Overdrive
DR9       -2.27 dB   -13.92 dB      2:14 08-The Gnome
DR9       -2.63 dB   -14.17 dB      3:52 09-Chapter 24
DR8       -3.91 dB   -16.23 dB      2:10 10-The Scarecrow
DR9       -2.17 dB   -14.20 dB      3:26 11-Bike
--------------------------------------------------------------------------------

Number of tracks:  11
Official DR value: DR9

Samplerate:        192000 Hz
Channels:          2
Bits per sample:   24
Bitrate:           4673 kbps
Codec:             FLAC
================================================================================




Create a new paste based on this one


Comments: