[ create a new paste ] login | about

Link: http://codepad.org/oP6VmUK6    [ raw code | fork ]

Plain Text, pasted on Jan 17:
[CUETools log; Date: 1/17/2017 8:28:02 AM; Version: 2.1.5]
[CTDB TOCID: OqZYNNCApe5tyq5dKU_KkTV7FAk-] found.
Track | CTDB Status
  1   | (774/786) Accurately ripped, or (3/786) differs in 177 samples @04:03:16
  2   | (783/786) Accurately ripped
  3   | (781/786) Accurately ripped
  4   | (784/786) Accurately ripped
  5   | (782/786) Accurately ripped
  6   | (785/786) Accurately ripped
  7   | (781/786) Accurately ripped
  8   | (782/786) Accurately ripped
  9   | (783/786) Accurately ripped
 10   | (778/786) Accurately ripped
 11   | (779/786) Accurately ripped
 12   | (781/786) Accurately ripped
 13   | (780/786) Accurately ripped
 14   | (779/786) Accurately ripped
 15   | (775/786) Accurately ripped
 16   | (764/786) Accurately ripped
[AccurateRip ID: 00282755-01e5dee4-cd10ae10] found.
Track   [  CRC   |   V2   ] Status
 01     [3bcc75db|61b7fa9e] (200+200/578) Accurately ripped
 02     [3571106f|943ea2c6] (200+200/580) Accurately ripped
 03     [fba71814|c1e4d750] (200+200/577) Accurately ripped
 04     [9a9e24c7|640984d4] (200+200/581) Accurately ripped
 05     [cb4b3221|e4fdfb6c] (200+200/581) Accurately ripped
 06     [7d1d346b|d3844407] (200+200/578) Accurately ripped
 07     [cc228245|41598cdd] (200+200/579) Accurately ripped
 08     [f98c7792|853ae098] (200+200/578) Accurately ripped
 09     [b2b0599e|d54667c7] (200+200/581) Accurately ripped
 10     [7030a83d|f9f2b6a3] (200+200/580) Accurately ripped
 11     [cb2e9034|089e688d] (200+200/581) Accurately ripped
 12     [9080f359|20da10bd] (200+200/580) Accurately ripped
 13     [4ad22f91|eb53ea61] (200+200/584) Accurately ripped
 14     [e3fc2a1e|25d533c4] (200+200/582) Accurately ripped
 15     [e941935f|0e67fcc8] (200+200/579) Accurately ripped
 16     [d8253b94|78a2fab9] (200+200/577) Accurately ripped
Offsetted by -694:
 01     [8eec81fb] (002/578) Accurately ripped
 02     [0280624e] (002/580) Accurately ripped
 03     [5242b7de] (002/577) Accurately ripped
 04     [7619bc68] (002/581) Accurately ripped
 05     [ae65475e] (002/581) Accurately ripped
 06     [56e2f48a] (002/578) Accurately ripped
 07     [01beeaac] (002/579) Accurately ripped
 08     [0118adfc] (002/578) Accurately ripped
 09     [924768a2] (002/581) Accurately ripped
 10     [965c7963] (002/580) Accurately ripped
 11     [929ad085] (002/581) Accurately ripped
 12     [ecb1f1da] (002/580) Accurately ripped
 13     [1ff25eb3] (002/584) Accurately ripped
 14     [e846ce5e] (002/582) Accurately ripped
 15     [591aa513] (002/579) Accurately ripped
 16     [ee6ac1eb] (002/577) Accurately ripped
Offsetted by -676:
 01     [2c911fa0] (003/578) Accurately ripped
 02     [cb3f1fcd] (003/580) Accurately ripped
 03     [4aaf9912] (003/577) Accurately ripped
 04     [883ea0c3] (003/581) Accurately ripped
 05     [f1b23a4f] (003/581) Accurately ripped
 06     [f220b99b] (003/578) Accurately ripped
 07     [fd10c887] (003/579) Accurately ripped
 08     [305e2be2] (003/578) Accurately ripped
 09     [c4917da9] (003/581) Accurately ripped
 10     [21f8e7c3] (003/580) Accurately ripped
 11     [06b00bf4] (003/581) Accurately ripped
 12     [086fda70] (003/580) Accurately ripped
 13     [677b5fc0] (003/584) Accurately ripped
 14     [316b31f7] (003/582) Accurately ripped
 15     [ac609d43] (002/579) Accurately ripped
 16     [83a54ce7] (003/577) Accurately ripped
Offsetted by -664:
 01     [47af94e7] (005/578) Accurately ripped
 02     [a780848d] (005/580) Accurately ripped
 03     [c64eb7e1] (005/577) Accurately ripped
 04     [ab8cd04e] (005/581) Accurately ripped
 05     [2aaac891] (005/581) Accurately ripped
 06     [50f1fc89] (005/578) Accurately ripped
 07     [cb2a8f46] (005/579) Accurately ripped
 08     [b16f6fbf] (005/578) Accurately ripped
 09     [d5d2e0f4] (005/581) Accurately ripped
 10     [488f38f4] (005/580) Accurately ripped
 11     [5043c76c] (005/581) Accurately ripped
 12     [207f5cfc] (005/580) Accurately ripped
 13     [09715db7] (005/584) Accurately ripped
 14     [c1821756] (005/582) Accurately ripped
 15     [1e90b4f3] (005/579) Accurately ripped
 16     [3ca6a960] (005/577) Accurately ripped
Offsetted by -646:
 01     [de501af8] (054/578) Accurately ripped
 02     [d0b2b361] (054/580) Accurately ripped
 03     [26e18a4c] (054/577) Accurately ripped
 04     [2a347ab9] (055/581) Accurately ripped
 05     [f575930c] (055/581) Accurately ripped
 06     [8b81a680] (054/578) Accurately ripped
 07     [7e77e1b2] (054/579) Accurately ripped
 08     [53a179dd] (055/578) Accurately ripped
 09     [91c3e2fb] (056/581) Accurately ripped
 10     [89aa7b2b] (054/580) Accurately ripped
 11     [3a49be63] (055/581) Accurately ripped
 12     [6119fbfd] (055/580) Accurately ripped
 13     [74eeab05] (055/584) Accurately ripped
 14     [e1731764] (055/582) Accurately ripped
 15     [26e2ad99] (055/579) Accurately ripped
 16     [d28033e5] (053/577) Accurately ripped
Offsetted by -86:
 01     [0fae2ff5] (005/578) Accurately ripped
 02     [14b5533a] (005/580) Accurately ripped
 03     [de665017] (005/577) Accurately ripped
 04     [c27ad1d3] (005/581) Accurately ripped
 05     [28fba560] (005/581) Accurately ripped
 06     [ac3d55ef] (005/578) Accurately ripped
 07     [79f51a04] (005/579) Accurately ripped
 08     [43720ded] (005/578) Accurately ripped
 09     [8612bc62] (005/581) Accurately ripped
 10     [427e90de] (005/580) Accurately ripped
 11     [8014528c] (005/581) Accurately ripped
 12     [b7d1593b] (004/580) Accurately ripped
 13     [f0f4104f] (005/584) Accurately ripped
 14     [316ba614] (005/582) Accurately ripped
 15     [fb90b97d] (005/579) Accurately ripped
 16     [9aa8293a] (004/577) Accurately ripped
Offsetted by 508:
 01     [49a51b87] (004/578) Accurately ripped
 02     [fea7d7df] (005/580) Accurately ripped
 03     [9453f3fb] (005/577) Accurately ripped
 04     [56ab4a1a] (005/581) Accurately ripped
 05     [46c07687] (005/581) Accurately ripped
 06     [ec1614c5] (005/578) Accurately ripped
 07     [17dba52e] (005/579) Accurately ripped
 08     [dd1967c7] (005/578) Accurately ripped
 09     [45c29f01] (005/581) Accurately ripped
 10     [e2ed4cd7] (005/580) Accurately ripped
 11     [58abbc10] (005/581) Accurately ripped
 12     [49df4526] (005/580) Accurately ripped
 13     [03f250de] (005/584) Accurately ripped
 14     [71a02fb6] (005/582) Accurately ripped
 15     [9af519e8] (005/579) Accurately ripped
 16     [0cf84340] (005/577) Accurately ripped
Offsetted by -1358:
 01     [ad763399] (000/578) No match (V2 was not tested)
 02     [521817e8] (000/580) No match (V2 was not tested)
 03     [baceded0] (000/577) No match (V2 was not tested)
 04     [8ed134f6] (000/581) No match (V2 was not tested)
 05     [fbd53477] (000/581) No match (V2 was not tested)
 06     [6acccbad] (000/578) No match (V2 was not tested)
 07     [b5464c5d] (000/579) No match (V2 was not tested)
 08     [bb5c7850] (000/578) No match (V2 was not tested)
 09     [424a90ef] (000/581) No match (V2 was not tested)
 10     [45a6b255] (000/580) No match (V2 was not tested)
 11     [49a8f262] (000/581) No match (V2 was not tested)
 12     [6b50f17f] (000/580) No match (V2 was not tested)
 13     [a4227dd6] (000/584) No match (V2 was not tested)
 14     [e8ebf76c] (000/582) No match (V2 was not tested)
 15     [4df9b17d] (000/579) No match (V2 was not tested)
 16     [4e059c42] (000/577) No match (V2 was not tested)
Offsetted by -667:
 01     [ee8372da] (000/578) No match (V2 was not tested)
 02     [fe67a8a7] (000/580) No match (V2 was not tested)
 03     [070e6496] (000/577) No match (V2 was not tested)
 04     [37b1ceee] (000/581) No match (V2 was not tested)
 05     [bb049f91] (000/581) No match (V2 was not tested)
 06     [dc9bdd37] (000/578) No match (V2 was not tested)
 07     [46bdec44] (000/579) No match (V2 was not tested)
 08     [a7060590] (000/578) No match (V2 was not tested)
 09     [bb511ea4] (000/581) No match (V2 was not tested)
 10     [b1fc836d] (000/580) No match (V2 was not tested)
 11     [500c83c1] (000/581) No match (V2 was not tested)
 12     [79a6707a] (000/580) No match (V2 was not tested)
 13     [78392ca0] (000/584) No match
 14     [a515e077] (000/582) No match (V2 was not tested)
 15     [655ca43d] (000/579) No match
 16     [4e609245] (000/577) No match (V2 was not tested)
Offsetted by -640:
 01     [67814c49] (000/578) No match (V2 was not tested)
 02     [edaaad0d] (000/580) No match (V2 was not tested)
 03     [a71ad5fa] (000/577) No match (V2 was not tested)
 04     [e4185785] (002/581) Accurately ripped
 05     [76e53324] (000/581) No match (V2 was not tested)
 06     [51394c6d] (000/578) No match (V2 was not tested)
 07     [35c16d62] (000/579) No match (V2 was not tested)
 08     [5cadf78a] (000/578) No match (V2 was not tested)
 09     [50ac1fcf] (000/581) No match (V2 was not tested)
 10     [76560250] (000/580) No match (V2 was not tested)
 11     [824eadf8] (000/581) No match (V2 was not tested)
 12     [4a63a9d3] (000/580) No match (V2 was not tested)
 13     [ff413392] (002/584) Accurately ripped
 14     [41f0bfe1] (000/582) No match (V2 was not tested)
 15     [a9df4eb6] (000/579) No match (V2 was not tested)
 16     [af336201] (000/577) No match (V2 was not tested)
Offsetted by -156:
 01     [993c12e2] (000/578) No match (V2 was not tested)
 02     [13adac6f] (000/580) No match (V2 was not tested)
 03     [49f746e3] (000/577) No match (V2 was not tested)
 04     [9c24e511] (000/581) No match (V2 was not tested)
 05     [a8c16e5e] (000/581) No match (V2 was not tested)
 06     [d06471b5] (000/578) No match (V2 was not tested)
 07     [b55f70fc] (000/579) No match (V2 was not tested)
 08     [0c08451b] (000/578) No match (V2 was not tested)
 09     [0e5812cf] (000/581) No match (V2 was not tested)
 10     [0d5cfd08] (000/580) No match (V2 was not tested)
 11     [72c319e3] (000/581) No match (V2 was not tested)
 12     [a4d0d3c6] (000/580) No match (V2 was not tested)
 13     [bf2ee630] (000/584) No match (V2 was not tested)
 14     [3ce17527] (000/582) No match (V2 was not tested)
 15     [acd4f80a] (000/579) No match (V2 was not tested)
 16     [0f19d9f6] (000/577) No match (V2 was not tested)
Offsetted by -66:
 01     [855d2dc8] (000/578) No match (V2 was not tested)
 02     [3da1d1d7] (000/580) No match (V2 was not tested)
 03     [56a4be7b] (000/577) No match (V2 was not tested)
 04     [30659610] (000/581) No match (V2 was not tested)
 05     [142d2a8b] (000/581) No match (V2 was not tested)
 06     [6bffa43a] (000/578) No match (V2 was not tested)
 07     [f867f3fe] (000/579) No match (V2 was not tested)
 08     [30abbd00] (000/578) No match (V2 was not tested)
 09     [0547a2b1] (000/581) No match (V2 was not tested)
 10     [91c563f3] (000/580) No match (V2 was not tested)
 11     [51fc995e] (000/581) No match (V2 was not tested)
 12     [34fed2c3] (000/580) No match (V2 was not tested)
 13     [275e2fc0] (000/584) No match (V2 was not tested)
 14     [1e63f5e7] (000/582) No match (V2 was not tested)
 15     [4527277b] (000/579) No match (V2 was not tested)
 16     [313d63b2] (000/577) No match (V2 was not tested)
Offsetted by -36:
 01     [1ed733b4] (000/578) No match (V2 was not tested)
 02     [72d6c4b6] (000/580) No match (V2 was not tested)
 03     [17d45453] (000/577) No match (V2 was not tested)
 04     [950c5b95] (000/581) No match (V2 was not tested)
 05     [16966954] (000/581) No match (V2 was not tested)
 06     [def8f2e7] (000/578) No match (V2 was not tested)
 07     [90c42f96] (000/579) No match (V2 was not tested)
 08     [ce17ab10] (000/578) No match (V2 was not tested)
 09     [f9387c0c] (000/581) No match (V2 was not tested)
 10     [3ebf8da3] (000/580) No match (V2 was not tested)
 11     [6a071944] (000/581) No match (V2 was not tested)
 12     [b72141b8] (000/580) No match (V2 was not tested)
 13     [769c2b02] (000/584) No match (V2 was not tested)
 14     [adffb12f] (000/582) No match (V2 was not tested)
 15     [f23461ea] (000/579) No match (V2 was not tested)
 16     [93ee3abd] (000/577) No match (V2 was not tested)
Offsetted by -12:
 01     [2bb01c1e] (000/578) No match (V2 was not tested)
 02     [68cf9935] (000/580) No match (V2 was not tested)
 03     [21f15468] (000/577) No match (V2 was not tested)
 04     [3dea7f5c] (000/581) No match (V2 was not tested)
 05     [55ed2fb6] (000/581) No match (V2 was not tested)
 06     [24fb00be] (000/578) No match (V2 was not tested)
 07     [2b275315] (000/579) No match (V2 was not tested)
 08     [5e12d7b0] (000/578) No match (V2 was not tested)
 09     [fbca6b5c] (000/581) No match (V2 was not tested)
 10     [2a27c646] (000/580) No match (V2 was not tested)
 11     [566976eb] (000/581) No match (V2 was not tested)
 12     [c05edda7] (000/580) No match (V2 was not tested)
 13     [ef9ba9bf] (000/584) No match (V2 was not tested)
 14     [1235fcf1] (000/582) No match (V2 was not tested)
 15     [be39d141] (000/579) No match (V2 was not tested)
 16     [169ee619] (000/577) No match (V2 was not tested)
Offsetted by -6:
 01     [a6c94b8b] (000/578) No match (V2 was not tested)
 02     [85f092f0] (000/580) No match (V2 was not tested)
 03     [4a63aed4] (000/577) No match (V2 was not tested)
 04     [bbff9714] (000/581) No match (V2 was not tested)
 05     [9786a610] (000/581) No match (V2 was not tested)
 06     [e3e58d20] (000/578) No match (V2 was not tested)
 07     [a5ac3065] (000/579) No match (V2 was not tested)
 08     [eb964252] (000/578) No match (V2 was not tested)
 09     [04562fba] (000/581) No match (V2 was not tested)
 10     [645c4d68] (000/580) No match (V2 was not tested)
 11     [9e7b297a] (000/581) No match (V2 was not tested)
 12     [37a61fd2] (000/580) No match (V2 was not tested)
 13     [31d616a6] (000/584) No match (V2 was not tested)
 14     [51f72ccf] (000/582) No match (V2 was not tested)
 15     [a657f22c] (000/579) No match (V2 was not tested)
 16     [f76010dd] (000/577) No match (V2 was not tested)
Offsetted by 6:
 01     [c984aa7f] (000/578) No match (V2 was not tested)
 02     [f297693f] (000/580) No match (V2 was not tested)
 03     [558e2673] (000/577) No match (V2 was not tested)
 04     [15c5287a] (000/581) No match (V2 was not tested)
 05     [1027479d] (000/581) No match (V2 was not tested)
 06     [3acfd2b7] (000/578) No match (V2 was not tested)
 07     [2b338e6c] (000/579) No match (V2 was not tested)
 08     [8a59b1d4] (000/578) No match (V2 was not tested)
 09     [f532bc15] (000/581) No match (V2 was not tested)
 10     [f8ebe6ff] (000/580) No match (V2 was not tested)
 11     [6d2c102e] (000/581) No match (V2 was not tested)
 12     [c30110a5] (000/580) No match (V2 was not tested)
 13     [86e4b74b] (000/584) No match (V2 was not tested)
 14     [e6393617] (000/582) No match (V2 was not tested)
 15     [5a3ddf61] (000/579) No match (V2 was not tested)
 16     [b8f36641] (000/577) No match (V2 was not tested)

Track Peak [ CRC32  ] [W/O NULL] [  LOG   ]
 --   98.9 [7CC07290] [5301D735]   CRC32   
 01   98.9 [ADBB6707] [23A63FDE]           
 02   93.4 [6E2F65FA] [445B813D]           
 03   98.9 [88FEB08E] [BE582794]           
 04   90.9 [9F2BEA6A] [3574B27B]           
 05   98.9 [47D886F3] [CBBE3F4E]           
 06   98.9 [C38DB3EE] [C1DCAAAF]           
 07   98.9 [65B4650D] [F1C44D2C]           
 08   98.9 [CBB18877] [2DD4F42F]           
 09   98.9 [013E6A56] [63FEE4E9]           
 10   98.9 [1076ECCB] [3FED51E9]           
 11   98.9 [87F24F06] [575D5839]           
 12   98.9 [7B65FC59] [25C2F9ED]           
 13   98.9 [D9310873] [FD246DC1]           
 14   98.9 [18B06B60] [8B714EDA]           
 15   98.9 [104F5940] [56765AC5]           
 16   98.9 [D861E276] [6397CD68]           



Create a new paste based on this one


Comments: