[ create a new paste ] login | about

Link: http://codepad.org/oSjLaYMo    [ raw code | fork ]

Plain Text, pasted on Aug 9:
foobar2000 1.4.4 / Dynamic Range Meter 1.1.1
log date: 2019-08-09 11:46:47

--------------------------------------------------------------------------------
Analyzed: The Alan Parsons Project / Eye In The Sky (HDAD 2011)
--------------------------------------------------------------------------------

DR         Peak         RMS     Duration Track
--------------------------------------------------------------------------------
DR12      -1.97 dB   -17.37 dB      1:53 01-Sirius
DR12      -1.32 dB   -16.00 dB      4:40 02-Eye In The Sky
DR11      -0.86 dB   -14.91 dB      4:52 03-Children Of The Moon
DR11      -3.98 dB   -17.98 dB      2:09 04-Gemini
DR11      -0.41 dB   -14.85 dB      7:17 05-Silence And I
DR11      -1.32 dB   -14.68 dB      4:19 06-You're Gonna Get Your Fingers Burned
DR13      -1.62 dB   -17.36 dB      4:59 07-Psychobabble
DR13      -0.84 dB   -15.39 dB      3:35 08-Mammagamma
DR12      -1.28 dB   -15.67 dB      3:54 09-Step By Step
DR11       0.00 dB   -17.49 dB      4:52 10-Old And Wise
--------------------------------------------------------------------------------

Number of tracks:  10
Official DR value: DR12

Samplerate:        96000 Hz
Channels:          2
Bits per sample:   24
Bitrate:           2951 kbps
Codec:             FLAC
================================================================================




Create a new paste based on this one


Comments: