[ create a new paste ] login | about

Link: http://codepad.org/oWeju45z    [ raw code | fork ]

Plain Text, pasted on Nov 25:
[CUETools log; Date: 11/25/2016 6:46:51 AM; Version: 2.1.5]
[CTDB TOCID: YcV8ZMo8iqK25L0oo73EfRxu_uU-] found.
Track | CTDB Status
  1   | (142/142) Accurately ripped
  2   | (140/142) Accurately ripped
  3   | (141/142) Accurately ripped
  4   | (141/142) Accurately ripped
  5   | (140/142) Accurately ripped
  6   | (140/142) Accurately ripped
  7   | (137/142) Accurately ripped
  8   | (139/142) Accurately ripped
  9   | (139/142) Accurately ripped
 10   | (138/142) Accurately ripped
[AccurateRip ID: 0011d4eb-008f1cbb-780b090a] found.
Track   [  CRC   |   V2   ] Status
 01     [3f0699c2|c2d85125] (019+015/170) Accurately ripped
 02     [f757aa20|907cbe2d] (019+015/170) Accurately ripped
 03     [0727b9ea|d27a38a9] (018+015/171) Accurately ripped
 04     [57bc60bc|64a80884] (019+015/172) Accurately ripped
 05     [a01afa6f|3cdf1ac9] (019+015/171) Accurately ripped
 06     [4f1d8694|fcff268b] (019+015/175) Accurately ripped
 07     [5cac447a|b5b0b3fa] (019+015/171) Accurately ripped
 08     [45a5a071|c293f69d] (020+015/175) Accurately ripped
 09     [062844b4|a57a720b] (019+015/171) Accurately ripped
 10     [3a5881e4|6104e95c] (018+015/170) Accurately ripped
Offsetted by -1039:
 01     [5c42bfd9] (012/170) Accurately ripped
 02     [e78fcb66] (012/170) Accurately ripped
 03     [40e6d503] (012/171) Accurately ripped
 04     [9b124d67] (012/172) Accurately ripped
 05     [72f6ad46] (012/171) Accurately ripped
 06     [444ace78] (012/175) Accurately ripped
 07     [da9ba202] (012/171) Accurately ripped
 08     [7e482091] (012/175) Accurately ripped
 09     [72992dbf] (012/171) Accurately ripped
 10     [017e5a28] (012/170) Accurately ripped
Offsetted by -357:
 01     [713b8b7f] (008/170) Accurately ripped
 02     [032ae3a2] (008/170) Accurately ripped
 03     [9143b13d] (008/171) Accurately ripped
 04     [68b66bd5] (008/172) Accurately ripped
 05     [a159686c] (008/171) Accurately ripped
 06     [36f23260] (008/175) Accurately ripped
 07     [e4182352] (008/171) Accurately ripped
 08     [78a509d1] (008/175) Accurately ripped
 09     [f439dfed] (008/171) Accurately ripped
 10     [33229dfc] (008/170) Accurately ripped
Offsetted by 115:
 01     [b2cbf467] (006/170) Accurately ripped
 02     [8f241db2] (005/170) Accurately ripped
 03     [05b100d5] (005/171) Accurately ripped
 04     [9ab1639d] (005/172) Accurately ripped
 05     [d0777354] (005/171) Accurately ripped
 06     [84cb64c0] (005/175) Accurately ripped
 07     [3d3d8212] (005/171) Accurately ripped
 08     [eb5bf4d1] (005/175) Accurately ripped
 09     [4d3038b5] (005/171) Accurately ripped
 10     [bed37bd6] (005/170) Accurately ripped
Offsetted by 332:
 01     [f3a6c0d6] (023/170) Accurately ripped
 02     [238fa568] (024/170) Accurately ripped
 03     [93a00116] (025/171) Accurately ripped
 04     [21f13ec0] (025/172) Accurately ripped
 05     [250b3a83] (024/171) Accurately ripped
 06     [2f17ed44] (026/175) Accurately ripped
 07     [404236da] (024/171) Accurately ripped
 08     [5dede1f1] (024/175) Accurately ripped
 09     [9957b738] (024/171) Accurately ripped
 10     [e1f00e4b] (023/170) Accurately ripped
Offsetted by -30:
 01     [20d31df0] (000/170) No match (V2 was not tested)
 02     [07651cac] (000/170) No match (V2 was not tested)
 03     [5573381c] (000/171) No match (V2 was not tested)
 04     [f85b1212] (000/172) No match (V2 was not tested)
 05     [0dec981d] (000/171) No match (V2 was not tested)
 06     [a549365c] (000/175) No match (V2 was not tested)
 07     [437b3f8a] (000/171) No match (V2 was not tested)
 08     [9ffba0b1] (000/175) No match (V2 was not tested)
 09     [6e0feeca] (000/171) No match (V2 was not tested)
 10     [c74299ea] (000/170) No match (V2 was not tested)

Track Peak [ CRC32  ] [W/O NULL] [  LOG   ]
 --  100.0 [0E678BD7] [1C648119]   CRC32   
 01  100.0 [FB6CC7EF] [C49A9D6E]           
 02   90.8 [A0F15675] [6419F579]           
 03   93.3 [B50D4058] [7AAE3C1C]           
 04   93.4 [3FF41727] [467E01BE]           
 05   78.8 [68661835] [68942781]           
 06   92.2 [C0380C56] [9FC926E6]           
 07   91.3 [15375391] [8978274E]           
 08   73.1 [3DC84909] [277D9C5D]           
 09   81.3 [1D7E113D] [27AEE30C]           
 10   75.6 [8A3E743C] [660E076E]           



Create a new paste based on this one


Comments: