[ create a new paste ] login | about

Link: http://codepad.org/oWhlycGk    [ raw code | fork ]

Plain Text, pasted on May 8:
foobar2000 1.4.1 / Dynamic Range Meter 1.1.1
log date: 2019-05-07 19:40:49

--------------------------------------------------------------------------------
Analyzed: Miles Davis / ?
--------------------------------------------------------------------------------

DR         Peak         RMS     Duration Track
--------------------------------------------------------------------------------
DR12      -5.58 dB   -21.09 dB     15:13 01-Sivad
DR9       -7.87 dB   -20.61 dB      3:14 02-Little Church
DR12      -5.35 dB   -20.88 dB      5:52 03-Gemini / Double Image
DR11      -6.30 dB   -19.93 dB     21:09 04-What I Say
DR10      -9.51 dB   -23.20 dB      4:03 05-Nem Um Talvez
--------------------------------------------------------------------------------

Number of tracks:  5
Official DR value: DR11

Samplerate:        2822400 Hz / PCM Samplerate: 176400 Hz
Channels:          2
Bits per sample:   1
Bitrate:           5645 kbps
Codec:             DSD64
================================================================================

foobar2000 1.4.1 / Dynamic Range Meter 1.1.1
log date: 2019-05-07 19:41:50

--------------------------------------------------------------------------------
Analyzed: Miles Davis / ?
--------------------------------------------------------------------------------

DR         Peak         RMS     Duration Track
--------------------------------------------------------------------------------
DR10     -10.03 dB   -24.94 dB      2:13 01-Selim
DR12      -6.54 dB   -21.21 dB     23:25 02-Funky Tonk
DR13      -5.74 dB   -20.93 dB     26:29 03-Inamorata And Narration By Conrad Roberts
--------------------------------------------------------------------------------

Number of tracks:  3
Official DR value: DR11

Samplerate:        2822400 Hz / PCM Samplerate: 176400 Hz
Channels:          2
Bits per sample:   1
Bitrate:           5645 kbps
Codec:             DSD64
================================================================================




Create a new paste based on this one


Comments: