[ create a new paste ] login | about

Link: http://codepad.org/oWlHAUcl    [ raw code | fork ]

Plain Text, pasted on Apr 24:
Exact Audio Copy V1.3 from 2. September 2016

EAC extraction logfile from 20. April 2018, 13:18

Led Zeppelin / How The West Was Won CD2

Used drive  : PLEXTOR DVDR   PX-L890SA   Adapter: 1  ID: 0

Read mode               : Secure
Utilize accurate stream : Yes
Defeat audio cache      : Yes
Make use of C2 pointers : No

Read offset correction                      : 6
Overread into Lead-In and Lead-Out          : No
Fill up missing offset samples with silence : Yes
Delete leading and trailing silent blocks   : No
Null samples used in CRC calculations       : Yes
Used interface                              : Native Win32 interface for Win NT & 2000

Used output format              : User Defined Encoder
Selected bitrate                : 1024 kBit/s
Quality                         : High
Add ID3 tag                     : No
Command line compressor         : C:\Program Files (x86)\Exact Audio Copy\Flac\flac.exe
Additional command line options : -V -8 -T "Date=%year%" -T "Genre=%genre%" %source%


TOC of the extracted CD

     Track |   Start  |  Length  | Start sector | End sector 
    ---------------------------------------------------------
        1  |  0:00.00 | 25:25.24 |         0    |   114398   
        2  | 25:25.24 |  4:40.15 |    114399    |   135413   
        3  | 30:05.39 |  3:41.32 |    135414    |   152020   
        4  | 33:46.71 | 19:24.50 |    152021    |   239370   


Range status and errors

Selected range

     Filename H:\AUDIO\MUSIC\2003. Led Zeppelin - How West Was Won (Atlantic 0603497862788, EU)\CD2\Led Zeppelin - How The West Was Won CD2.wav

     Peak level 98.8 %
     Extraction speed 8.4 X
     Range quality 100.0 %
     Test CRC 6351ED6F
     Copy CRC 6351ED6F
     Copy OK

No errors occurred

 
AccurateRip summary
 
Track  1  not present in database
Track  2  not present in database
Track  3  not present in database
Track  4  not present in database
 
None of the tracks are present in the AccurateRip database

End of status report

==== Log checksum F2CB14745049EEAEC46852DD87045CC779B4DF62E793AA649F9C1E5725545538 ====



Create a new paste based on this one


Comments: