[ create a new paste ] login | about

Link: http://codepad.org/oeBFSJVy    [ raw code | fork ]

Plain Text, pasted on Aug 30:
Exact Audio Copy V1.3 from 2. September 2016

EAC extraction logfile from 15. August 2019, 15:18

Climax Blues Band / Sense Of Direction

Used drive  : PLEXTOR BD-R  PX-B950SA   Adapter: 1  ID: 1

Read mode               : Secure
Utilize accurate stream : Yes
Defeat audio cache      : Yes
Make use of C2 pointers : No

Read offset correction                      : 6
Overread into Lead-In and Lead-Out          : No
Fill up missing offset samples with silence : Yes
Delete leading and trailing silent blocks   : No
Null samples used in CRC calculations       : Yes
Used interface                              : Native Win32 interface for Win NT & 2000

Used output format : Internal WAV Routines
Sample format      : 44.100 Hz; 16 Bit; Stereo


TOC of the extracted CD

     Track |   Start  |  Length  | Start sector | End sector 
    ---------------------------------------------------------
        1  |  0:00.00 |  6:07.47 |         0    |    27571   
        2  |  6:07.47 |  2:38.52 |     27572    |    39473   
        3  |  8:46.24 |  4:02.27 |     39474    |    57650   
        4  | 12:48.51 |  4:10.48 |     57651    |    76448   
        5  | 16:59.24 |  5:17.64 |     76449    |   100287   
        6  | 22:17.13 |  6:33.00 |    100288    |   129762   
        7  | 28:50.13 |  3:13.12 |    129763    |   144249   
        8  | 32:03.25 |  1:43.50 |    144250    |   152024   
        9  | 33:47.00 |  3:32.21 |    152025    |   167945   
       10  | 37:19.21 |  3:55.12 |    167946    |   185582   


Range status and errors

Selected range

     Filename C:\Climax Blues Band\2019 The Albums 1973-1976 (4CD Box Set Esoteric Records)\1974 Sense Of Direction\Climax Blues Band - Sense Of Direction.wav

     Peak level 99.4 %
     Extraction speed 6.7 X
     Range quality 100.0 %
     Test CRC B3E8BA63
     Copy CRC B3E8BA63
     Copy OK

No errors occurred

 
AccurateRip summary
 
Track  1  not present in database
Track  2  not present in database
Track  3  not present in database
Track  4  not present in database
Track  5  not present in database
Track  6  not present in database
Track  7  not present in database
Track  8  not present in database
Track  9  not present in database
Track 10  not present in database
 
None of the tracks are present in the AccurateRip database

End of status report

---- CUETools DB Plugin V2.1.6

[CTDB TOCID: 4uvRycz7S.GgMqMAYvsMaNk7Tf8-] disk not present in database
Submit result: 4uvRycz7S.GgMqMAYvsMaNk7Tf8- has been uploaded


==== Log checksum B7BF9B6EF19CBD119F70193354E0870939FB6654635C4FD0013719D89350AA3F ====



Create a new paste based on this one


Comments: