[ create a new paste ] login | about

Link: http://codepad.org/oeGyJDZP    [ raw code | fork ]

Plain Text, pasted on Dec 31:
foobar2000 1.5 / Dynamic Range Meter 1.1.1
log date: 2019-12-31 23:44:07

--------------------------------------------------------------------------------
Analyzed: Inger Marie Gundersen / The Best of Inger Marie Gundersen Vol.2
--------------------------------------------------------------------------------

DR         Peak         RMS     Duration Track
--------------------------------------------------------------------------------
DR11      -0.66 dB   -14.83 dB      3:52 01-When All Is Said And Done     
DR10      -0.64 dB   -14.73 dB      4:27 02-Try To Find Me                
DR11      -0.93 dB   -13.89 dB      4:07 03-Last First Kiss               
DR10      -0.86 dB   -14.36 dB      3:16 04-Make This Moment              
DR8       -0.64 dB   -12.19 dB      3:39 05-Let It Be Me                  
DR10      -0.62 dB   -12.48 dB      4:57 06-Crying In The Rain            
DR10      -1.47 dB   -14.26 dB      5:30 07-Feels Like Home               
DR9       -1.33 dB   -12.40 dB      4:22 08-Where Were you                
DR11      -0.68 dB   -13.02 dB      4:07 09-I Can See Clearly Now         
DR9       -1.33 dB   -12.90 dB      5:39 10-One                           
DR11      -0.61 dB   -14.98 dB      2:33 11-I'm So Lonesome I Could Cry   
DR11      -0.96 dB   -15.67 dB      3:09 12-Even When                     
DR11      -0.62 dB   -13.78 dB      4:46 13-Take On Me                    
DR12      -0.63 dB   -16.69 dB      6:07 14-Fool On The Hill - Nature Boy 
--------------------------------------------------------------------------------

Number of tracks:  14
Official DR value: DR10

Samplerate:        88200 Hz
Channels:          2
Bits per sample:   24
Bitrate:           2405 kbps
Codec:             FLAC
================================================================================




Create a new paste based on this one


Comments: