[ create a new paste ] login | about

Link: http://codepad.org/ofC0fCq6    [ raw code | fork ]

Plain Text, pasted on Aug 28:
foobar2000 1.3.17 / Dynamic Range Meter 1.1.1
log date: 2018-08-27 21:37:40

--------------------------------------------------------------------------------
Analyzed: Atlanta Rhythm Section / A Rock And Roll Alternative
--------------------------------------------------------------------------------

DR         Peak         RMS     Duration Track
--------------------------------------------------------------------------------
DR14      -0.47 dB   -17.01 dB      5:18 01-Sky High
DR14      -0.59 dB   -16.80 dB      3:38 02-Hitch-Hiker's Hero
DR14      -1.12 dB   -17.37 dB      3:32 03-Don't Miss The Message
DR15      -0.38 dB   -18.41 dB      4:55 04-Georgia Rhythm
DR15      -0.84 dB   -17.71 dB      4:21 05-So Into You
DR15      -0.79 dB   -18.17 dB      4:56 06-Outside Woman Blues
DR14      -0.20 dB   -16.74 dB      4:13 07-Everybody Gotta Go
DR15      -0.51 dB   -20.39 dB      3:59 08-Neon Nites
--------------------------------------------------------------------------------

Number of tracks:  8
Official DR value: DR15

Samplerate:        192000 Hz
Channels:          2
Bits per sample:   24
Bitrate:           5144 kbps
Codec:             FLAC
================================================================================




Create a new paste based on this one


Comments: