[ create a new paste ] login | about

Link: http://codepad.org/og6THcwu    [ raw code | fork ]

Plain Text, pasted on Dec 15:
[CUETools log; Date: 12/14/2018 10:40:14 AM; Version: 2.1.5]
[CTDB TOCID: 04sAN2kTd7QcXZIqAm1yJoadFQY-] found.
Track | CTDB Status
  1   | (50/51) Accurately ripped
  2   | (51/51) Accurately ripped
  3   | (51/51) Accurately ripped
  4   | (51/51) Accurately ripped
  5   | (51/51) Accurately ripped
  6   | (51/51) Accurately ripped
  7   | (51/51) Accurately ripped
  8   | (51/51) Accurately ripped
  9   | (51/51) Accurately ripped
 10   | (51/51) Accurately ripped
 11   | (51/51) Accurately ripped
 12   | (51/51) Accurately ripped
 13   | (51/51) Accurately ripped
[AccurateRip ID: 001793c6-00e730be-ae0add0d] found.
Track   [  CRC   |   V2   ] Status
 01     [f82a43d9|c5226512] (06+49/55) Accurately ripped
 02     [9d5e8d7d|41cafd7f] (06+50/56) Accurately ripped
 03     [ac15efb8|5ba76db1] (06+50/56) Accurately ripped
 04     [156954b1|963ff293] (06+50/56) Accurately ripped
 05     [4e405792|4f4332d4] (06+50/56) Accurately ripped
 06     [f9502d7d|5ce219a0] (06+50/56) Accurately ripped
 07     [3075624e|078d85ac] (06+50/56) Accurately ripped
 08     [a6220d05|5fee7a35] (06+50/56) Accurately ripped
 09     [f2b54d94|137fc086] (06+50/56) Accurately ripped
 10     [c97fadbb|cd916174] (05+50/55) Accurately ripped
 11     [c700a294|0aace118] (06+50/56) Accurately ripped
 12     [d3adc58e|558af43a] (06+50/56) Accurately ripped
 13     [094ba3ad|0d885f07] (06+50/56) Accurately ripped

Track Peak [ CRC32  ] [W/O NULL] [  LOG   ]
 --   98.7 [AAA55686] [4C62CA30]   CRC32   
 01   98.7 [797D2F0C] [1CA5D15A]           
 02   98.7 [C51968B1] [7F19409B]           
 03   98.7 [DEA9B957] [BD753E83]           
 04   98.7 [F051E1BE] [6C20BC82]           
 05   98.7 [B637B3CB] [46CAE617]           
 06   98.7 [5E4BFE68] [F5F706DC]           
 07   98.7 [E80EE5C1] [5A4AEBE9]           
 08   98.7 [851D0324] [788329E6]           
 09   98.7 [4272CED8] [607F07FE]           
 10   98.7 [A85E4E07] [C7878ED6]           
 11   98.7 [C603D568] [E9D8F063]           
 12   98.7 [80FF3CC0] [334B0718]           
 13   98.7 [B24CF4D9] [FC601F0A]           



Create a new paste based on this one


Comments: