[ create a new paste ] login | about

Link: http://codepad.org/oimIzYZW    [ raw code | fork ]

Plain Text, pasted on Jun 7:
Exact Audio Copy V1.0 beta 3 from 29. August 2011

EAC extraction logfile from 2. February 2014, 11:58

John Mellencamp / Whenever We Wanted

Used drive  : PLEXTOR BD-R  PX-B950SA   Adapter: 6  ID: 0

Read mode               : Secure
Utilize accurate stream : Yes
Defeat audio cache      : Yes
Make use of C2 pointers : No

Read offset correction                      : 6
Overread into Lead-In and Lead-Out          : No
Fill up missing offset samples with silence : Yes
Delete leading and trailing silent blocks   : No
Null samples used in CRC calculations       : Yes
Used interface                              : Native Win32 interface for Win NT & 2000

Used output format : Internal WAV Routines
Sample format      : 44.100 Hz; 16 Bit; Stereo


TOC of the extracted CD

     Track |   Start  |  Length  | Start sector | End sector 
    ---------------------------------------------------------
        1  |  0:00.00 |  3:53.05 |         0    |    17479   
        2  |  3:53.05 |  3:42.57 |     17480    |    34186   
        3  |  7:35.62 |  3:36.53 |     34187    |    50439   
        4  | 11:12.40 |  3:47.35 |     50440    |    67499   
        5  | 15:00.00 |  4:00.65 |     67500    |    85564   
        6  | 19:00.65 |  3:39.52 |     85565    |   102041   
        7  | 22:40.42 |  4:16.43 |    102042    |   121284   
        8  | 26:57.10 |  4:48.32 |    121285    |   142916   
        9  | 31:45.42 |  3:44.43 |    142917    |   159759   
       10  | 35:30.10 |  3:20.60 |    159760    |   174819   
       11  | 38:50.70 |  6:30.15 |    174820    |   204084   


Range status and errors

Selected range

     Filename C:\John Mellencamp\2013 John Mellencamp 1978-2012 (19CD Box Set Mercury Records)\1991 Whenever We Wanted\John Mellencamp - Whenever We Wanted.wav

     Peak level 98.8 %
     Extraction speed 7.6 X
     Range quality 100.0 %
     Test CRC 8B51EDCF
     Copy CRC 8B51EDCF
     Copy OK

No errors occurred

 
AccurateRip summary
 
Track  1  accurately ripped (confidence 7)  [A1CEA676]  (AR v2)
Track  2  accurately ripped (confidence 7)  [7719C26C]  (AR v2)
Track  3  accurately ripped (confidence 7)  [768DE6E2]  (AR v2)
Track  4  accurately ripped (confidence 7)  [E5C027C2]  (AR v2)
Track  5  accurately ripped (confidence 7)  [AA0C1077]  (AR v2)
Track  6  accurately ripped (confidence 7)  [37619B90]  (AR v2)
Track  7  accurately ripped (confidence 7)  [36AEC03B]  (AR v2)
Track  8  accurately ripped (confidence 7)  [0C0337BF]  (AR v2)
Track  9  accurately ripped (confidence 7)  [03B26160]  (AR v2)
Track 10  accurately ripped (confidence 7)  [F130092C]  (AR v2)
Track 11  accurately ripped (confidence 7)  [314B5946]  (AR v2)
 
All tracks accurately ripped

End of status report

==== Log checksum 076F47BCD89E1B9E1CF8D2F654D31157B553694D4977D4763059A670AECBD748 ====



Create a new paste based on this one


Comments: