[ create a new paste ] login | about

Link: http://codepad.org/okQWMY3n    [ raw code | fork ]

Plain Text, pasted on Aug 1:
[CUETools log; Date: 8/1/2019 11:45:51 AM; Version: 2.1.5]
CD-Extra data track length 23:36:13.
[CTDB TOCID: SbEUj7RhY5x1O_yRB2Qqp6LmljI-] found.
Track | CTDB Status
  1   | (2576/2600) Accurately ripped, or (9/2600) differs in 61 samples @00:01:12-00:01:13,00:08:66,01:13:29
  2   | (2580/2600) Accurately ripped, or (3/2600) differs in 1069 samples @00:00:00, or (6/2600) differs in 154 samples @01:20:72-01:20:73,01:25:55,01:27:68,02:19:22-02:19:23,02:19:63-02:19:64,02:24:23-02:24:24,02:25:52-02:25:53
  3   | (2590/2600) Accurately ripped, or (3/2600) differs in 1094 samples @00:00:00
  4   | (2589/2600) Accurately ripped, or (3/2600) differs in 1083 samples @00:00:00
  5   | (2585/2600) Accurately ripped, or (3/2600) differs in 1073 samples @00:00:00
  6   | (2577/2600) Accurately ripped, or (9/2600) differs in 78 samples @03:23:49,03:24:02,03:24:58,03:24:72,03:25:11,03:25:25-03:25:26,03:25:39-03:25:40,03:25:67-03:25:68,03:27:02, or (3/2600) differs in 1073 samples @00:00:00
  7   | (2579/2600) Accurately ripped, or (9/2600) differs in 81 samples @00:09:69-00:09:70,00:10:23-00:10:24,00:12:15-00:12:16,00:12:29,00:12:72,00:14:35-00:14:36,01:00:10-01:00:11,01:08:27-01:08:28, or (3/2600) differs in 1085 samples @00:00:00
  8   | (2575/2600) Accurately ripped, or (9/2600) differs in 84 samples @00:18:07,00:20:18,00:25:24,00:25:53-00:25:54,00:25:67, or (3/2600) differs in 1078 samples @00:00:00
  9   | (2589/2600) Accurately ripped, or (3/2600) differs in 1082 samples @00:00:00
 10   | (2582/2600) Accurately ripped, or (3/2600) differs in 1066 samples @00:00:00
 11   | (2574/2600) Accurately ripped, or (9/2600) differs in 10 samples @00:55:18, or (3/2600) differs in 1073 samples @00:00:00
 12   | (2567/2600) Accurately ripped, or (12/2600) differs in 31757 samples @00:54:54-00:55:06, or (3/2600) differs in 1089 samples @00:00:00, or (6/2600) differs in 31757 samples @00:54:54-00:55:06
 13   | (2588/2600) Accurately ripped, or (3/2600) differs in 1062 samples @00:00:00
[AccurateRip ID: 0015f924-00e266e9-c20f6f0e] found.
Track   [  CRC   |   V2   ] Status
 01     [e6866e13|062b6ebf] (200+200/931) Accurately ripped
 02     [b30c1be0|e85e9b5f] (200+200/939) Accurately ripped
 03     [a25863c2|c4b1d549] (200+200/939) Accurately ripped
 04     [a59d58ab|99310cbc] (200+200/937) Accurately ripped
 05     [413518bf|04fe50e9] (200+200/935) Accurately ripped
 06     [55620a8a|09999964] (200+200/930) Accurately ripped
 07     [cee15347|b1b12738] (200+200/934) Accurately ripped
 08     [4297d229|711c9efe] (200+200/935) Accurately ripped
 09     [54cc879c|36579749] (200+200/937) Accurately ripped
 10     [5de332c8|3122a05c] (200+200/936) Accurately ripped
 11     [fdb57194|e8c8f72c] (200+200/939) Accurately ripped
 12     [34721d40|a535bcac] (200+200/942) Accurately ripped
 13     [28656585|4bc47002] (200+200/937) Accurately ripped
Offsetted by -837:
 01     [d2684d78] (003/931) Accurately ripped
 02     [9706d6e6] (003/939) Accurately ripped
 03     [d53d1d27] (003/939) Accurately ripped
 04     [2df3f4a2] (003/937) Accurately ripped
 05     [4c824dd6] (002/935) Accurately ripped
 06     [e666be89] (002/930) Accurately ripped
 07     [bef01ac2] (003/934) Accurately ripped
 08     [527ec396] (003/935) Accurately ripped
 09     [18bbe3b4] (002/937) Accurately ripped
 10     [98eca641] (002/936) Accurately ripped
 11     [43f74840] (003/939) Accurately ripped
 12     [281f9b84] (003/942) Accurately ripped
 13     [24656980] (002/937) Accurately ripped
Offsetted by -694:
 01     [3dda079e] (004/931) Accurately ripped
 02     [e3d86d24] (004/939) Accurately ripped
 03     [5c37fab2] (004/939) Accurately ripped
 04     [c9b5b6bd] (004/937) Accurately ripped
 05     [644e1195] (004/935) Accurately ripped
 06     [7f45d10e] (004/930) Accurately ripped
 07     [348e5836] (004/934) Accurately ripped
 08     [18c0bbd4] (004/935) Accurately ripped
 09     [934957c7] (004/937) Accurately ripped
 10     [3b81028f] (004/936) Accurately ripped
 11     [50d0935b] (004/939) Accurately ripped
 12     [294c618f] (004/942) Accurately ripped
 13     [74a95032] (004/937) Accurately ripped
Offsetted by -664:
 01     [2bab0b85] (002/931) Accurately ripped
 02     [27ba4019] (002/939) Accurately ripped
 03     [f70388a0] (002/939) Accurately ripped
 04     [2fb8c9eb] (002/937) Accurately ripped
 05     [09e6b300] (002/935) Accurately ripped
 06     [faf914f0] (002/930) Accurately ripped
 07     [74b9d24c] (002/934) Accurately ripped
 08     [f96f6f48] (002/935) Accurately ripped
 09     [6795512f] (002/937) Accurately ripped
 10     [2d07aabe] (002/936) Accurately ripped
 11     [34f1f3af] (002/939) Accurately ripped
 12     [4d9100c0] (002/942) Accurately ripped
 13     [8065007d] (002/937) Accurately ripped
Offsetted by -216:
 01     [0a4d0e5f] (003/931) Accurately ripped
 02     [7b773c2f] (003/939) Accurately ripped
 03     [bdf516a4] (003/939) Accurately ripped
 04     [493b01bc] (003/937) Accurately ripped
 05     [e6cb75f2] (003/935) Accurately ripped
 06     [66725f6e] (003/930) Accurately ripped
 07     [78e83927] (003/934) Accurately ripped
 08     [6cce0764] (003/935) Accurately ripped
 09     [8a55087d] (003/937) Accurately ripped
 10     [44a2c975] (003/936) Accurately ripped
 11     [228cc630] (003/939) Accurately ripped
 12     [5412fa71] (003/942) Accurately ripped
 13     [ea7ad99a] (003/937) Accurately ripped
Offsetted by -60:
 01     [8240da16] (002/931) Accurately ripped
 02     [25fb2ea6] (002/939) Accurately ripped
 03     [67b0dad6] (002/939) Accurately ripped
 04     [50e584b2] (002/937) Accurately ripped
 05     [3dd00bc5] (002/935) Accurately ripped
 06     [b40a015b] (002/930) Accurately ripped
 07     [890dab19] (002/934) Accurately ripped
 08     [b1d1ffdd] (002/935) Accurately ripped
 09     [16ba709f] (002/937) Accurately ripped
 10     [1d9c86a0] (002/936) Accurately ripped
 11     [a0eee38c] (002/939) Accurately ripped
 12     [ff93b09d] (002/942) Accurately ripped
 13     [3ff87b78] (002/937) Accurately ripped
Offsetted by -30:
 01     [ab9519c9] (006/931) Accurately ripped
 02     [f05323b5] (008/939) Accurately ripped
 03     [2795b0f9] (008/939) Accurately ripped
 04     [e1e6ed5a] (008/937) Accurately ripped
 05     [5662b431] (008/935) Accurately ripped
 06     [d189f089] (006/930) Accurately ripped
 07     [6d96b1e4] (007/934) Accurately ripped
 08     [2e846f5c] (008/935) Accurately ripped
 09     [2d06c30e] (008/937) Accurately ripped
 10     [0e6ac294] (008/936) Accurately ripped
 11     [eb877221] (008/939) Accurately ripped
 12     [5a9efa15] (008/942) Accurately ripped
 13     [3066ecf1] (008/937) Accurately ripped
Offsetted by -6:
 01     [70ce8459] (003/931) Accurately ripped
 02     [2db48ec6] (003/939) Accurately ripped
 03     [fdda3328] (003/939) Accurately ripped
 04     [b24f9416] (003/937) Accurately ripped
 05     [fa65d5a9] (003/935) Accurately ripped
 06     [28d78004] (003/930) Accurately ripped
 07     [73cca7e9] (003/934) Accurately ripped
 08     [e292dacb] (003/935) Accurately ripped
 09     [40fd71a5] (003/937) Accurately ripped
 10     [04dea3d8] (003/936) Accurately ripped
 11     [20661c60] (003/939) Accurately ripped
 12     [4065fa6e] (003/942) Accurately ripped
 13     [5c77e62f] (003/937) Accurately ripped
Offsetted by 6:
 01     [137e2a31] (200/931) Accurately ripped
 02     [96cf7a78] (200/939) Accurately ripped
 03     [f65ed1dc] (200/939) Accurately ripped
 04     [3f12b724] (200/937) Accurately ripped
 05     [8f388365] (200/935) Accurately ripped
 06     [ec94c0de] (200/930) Accurately ripped
 07     [769662a1] (200/934) Accurately ripped
 08     [c3e89732] (200/935) Accurately ripped
 09     [5a8775bd] (200/937) Accurately ripped
 10     [7cfb12f6] (200/936) Accurately ripped
 11     [4bb6c6b6] (200/939) Accurately ripped
 12     [1f7f3ff8] (200/942) Accurately ripped
 13     [f4bee524] (200/937) Accurately ripped
Offsetted by -667:
 01     [8184ab97] (000/931) No match (V2 was not tested)
 02     [ad8bcaf6] (000/939) No match (V2 was not tested)
 03     [31726053] (000/939) No match (V2 was not tested)
 04     [1a5b6007] (000/937) No match (V2 was not tested)
 05     [9a228b2c] (000/935) No match (V2 was not tested)
 06     [249b32c4] (000/930) No match (V2 was not tested)
 07     [ed0eb85e] (000/934) No match (V2 was not tested)
 08     [f9df9e49] (000/935) No match (V2 was not tested)
 09     [8bb7dfe5] (000/937) No match (V2 was not tested)
 10     [31a7b116] (000/936) No match (V2 was not tested)
 11     [b989dcb8] (000/939) No match (V2 was not tested)
 12     [3c635803] (000/942) No match (V2 was not tested)
 13     [9883bb8d] (000/937) No match (V2 was not tested)
Offsetted by -646:
 01     [74092ff7] (000/931) No match (V2 was not tested)
 02     [b3df1fa6] (000/939) No match (V2 was not tested)
 03     [dd328c64] (000/939) No match (V2 was not tested)
 04     [223d8ca8] (000/937) No match (V2 was not tested)
 05     [308faa9a] (000/935) No match (V2 was not tested)
 06     [80da6873] (000/930) No match (V2 was not tested)
 07     [52c69e9d] (000/934) No match (V2 was not tested)
 08     [b5ef95a7] (000/935) No match (V2 was not tested)
 09     [7ac2679c] (000/937) No match (V2 was not tested)
 10     [245bd175] (000/936) No match (V2 was not tested)
 11     [d42510a6] (000/939) No match (V2 was not tested)
 12     [d0afd174] (000/942) No match (V2 was not tested)
 13     [f1419f0b] (000/937) No match (V2 was not tested)
Offsetted by -132:
 01     [653b9e04] (000/931) No match (V2 was not tested)
 02     [aa4a686a] (000/939) No match (V2 was not tested)
 03     [4d7dc098] (000/939) No match (V2 was not tested)
 04     [1cb4496f] (000/937) No match (V2 was not tested)
 05     [1d54ae22] (000/935) No match (V2 was not tested)
 06     [b82847e7] (000/930) No match (V2 was not tested)
 07     [c567e8be] (000/934) No match (V2 was not tested)
 08     [6e6a255a] (000/935) No match (V2 was not tested)
 09     [c18fd536] (000/937) No match (V2 was not tested)
 10     [d074c28f] (000/936) No match (V2 was not tested)
 11     [cfc6cedd] (000/939) No match (V2 was not tested)
 12     [dbfd4661] (000/942) No match (V2 was not tested)
 13     [dffbaced] (000/937) No match (V2 was not tested)
Offsetted by -96:
 01     [50e8445a] (000/931) No match (V2 was not tested)
 02     [bf7aa068] (000/939) No match (V2 was not tested)
 03     [97a19496] (000/939) No match (V2 was not tested)
 04     [988c950a] (000/937) No match (V2 was not tested)
 05     [03d201f8] (000/935) No match (V2 was not tested)
 06     [a90cfa61] (000/930) No match (V2 was not tested)
 07     [0cfe6630] (000/934) No match (V2 was not tested)
 08     [901e62a5] (000/935) No match (V2 was not tested)
 09     [6a6a6a45] (000/937) No match (V2 was not tested)
 10     [ba0f089c] (000/936) No match (V2 was not tested)
 11     [d50c885b] (000/939) No match (V2 was not tested)
 12     [8b01c187] (000/942) No match (V2 was not tested)
 13     [8e6793df] (000/937) No match (V2 was not tested)
Offsetted by -78:
 01     [99ab1cba] (000/931) No match (V2 was not tested)
 02     [009d92ed] (000/939) No match (V2 was not tested)
 03     [c0fdc108] (000/939) No match (V2 was not tested)
 04     [2ee6ee80] (000/937) No match (V2 was not tested)
 05     [2c86e5ce] (000/935) No match (V2 was not tested)
 06     [f0d4f24a] (000/930) No match (V2 was not tested)
 07     [7e56e340] (000/934) No match (V2 was not tested)
 08     [550b7e55] (000/935) No match (V2 was not tested)
 09     [98d1fee9] (000/937) No match (V2 was not tested)
 10     [08c85e3b] (000/936) No match (V2 was not tested)
 11     [e0b8a67d] (000/939) No match (V2 was not tested)
 12     [cc2a77f6] (000/942) No match (V2 was not tested)
 13     [e68c0739] (000/937) No match (V2 was not tested)
Offsetted by -48:
 01     [9a0979e0] (002/931) Accurately ripped
 02     [7edc62b0] (002/939) Accurately ripped
 03     [757c18f8] (002/939) Accurately ripped
 04     [0a0c3bed] (000/937) No match (V2 was not tested)
 05     [cf61a540] (000/935) No match (V2 was not tested)
 06     [dfbbf125] (002/930) Accurately ripped
 07     [8f799a06] (000/934) No match (V2 was not tested)
 08     [89a5f539] (002/935) Accurately ripped
 09     [18396fcb] (002/937) Accurately ripped
 10     [b1cacb55] (000/936) No match (V2 was not tested)
 11     [91b371d8] (002/939) Accurately ripped
 12     [6d9a486e] (000/942) No match (V2 was not tested)
 13     [d23974af] (002/937) Accurately ripped
Offsetted by -25:
 01     [58d817f5] (000/931) No match (V2 was not tested)
 02     [e4cc0de2] (000/939) No match (V2 was not tested)
 03     [5dfcba99] (000/939) No match
 04     [109d59c0] (000/937) No match
 05     [4131d49b] (000/935) No match
 06     [b5fe08d9] (000/930) No match
 07     [69405ecb] (000/934) No match
 08     [854cc182] (000/935) No match
 09     [d71b6355] (000/937) No match
 10     [3458c752] (000/936) No match
 11     [77d0aa9a] (000/939) No match
 12     [3d1f2089] (000/942) No match
 13     [5926ab2c] (000/937) No match
Offsetted by -19:
 01     [77de6418] (000/931) No match (V2 was not tested)
 02     [f2f70f9a] (000/939) No match (V2 was not tested)
 03     [3a6208bc] (000/939) No match (V2 was not tested)
 04     [de9043c2] (000/937) No match (V2 was not tested)
 05     [679d489a] (000/935) No match (V2 was not tested)
 06     [b3591930] (000/930) No match (V2 was not tested)
 07     [f5f56dcc] (000/934) No match (V2 was not tested)
 08     [812b221c] (000/935) No match (V2 was not tested)
 09     [f0a2934b] (000/937) No match (V2 was not tested)
 10     [d853869c] (000/936) No match (V2 was not tested)
 11     [1d005448] (000/939) No match (V2 was not tested)
 12     [be2eebd5] (000/942) No match (V2 was not tested)
 13     [23f32937] (000/937) No match (V2 was not tested)
Offsetted by 12:
 01     [67b78eb7] (000/931) No match
 02     [a35b45b9] (000/939) No match
 03     [8b8220b6] (000/939) No match
 04     [9e0a7d11] (000/937) No match
 05     [3b62d0ae] (000/935) No match
 06     [198376d4] (000/930) No match
 07     [19a4a412] (000/934) No match
 08     [4211c0bf] (000/935) No match
 09     [73a78bc6] (000/937) No match
 10     [a2322279] (000/936) No match
 11     [62e3c518] (003/939) Accurately ripped
 12     [cf6324dc] (002/942) Accurately ripped
 13     [c18f651d] (002/937) Accurately ripped

Track Peak [ CRC32  ] [W/O NULL] [  LOG   ]
 --   96.8 [1FCE42C1] [2D4E7DA8]   CRC32   
 01   96.8 [84A0A6CA] [9603A25F]           
 02   95.8 [D58182DE] [FBF0996B]           
 03   95.8 [CEF0B77C] [30A4E1E4]           
 04   95.8 [5C7DE75C] [B3435633]           
 05   95.8 [E7C7E3B0] [925A768A]           
 06   95.8 [A465DA9F] [FB471EC9]           
 07   95.8 [06E42D21] [5D63D67D]           
 08   92.9 [BA59A8CD] [0B4071B7]           
 09   87.6 [E93A4756] [099E0262]           
 10   95.7 [90D23B28] [F4911591]           
 11   92.3 [477D1132] [67938386]           
 12   95.8 [60FEB8EA] [DB63FE8E]           
 13   95.8 [42FCB273] [F9995FC8]           



Create a new paste based on this one


Comments: