[ create a new paste ] login | about

Link: http://codepad.org/onHWcfCc    [ raw code | fork ]

Plain Text, pasted on Nov 27:
foobar2000 1.3.17 / Dynamic Range Meter 1.1.1
log date: 2018-11-26 17:20:32

--------------------------------------------------------------------------------
Analyzed: Elvis Costello / North
--------------------------------------------------------------------------------

DR         Peak         RMS     Duration Track
--------------------------------------------------------------------------------
DR14      -3.09 dB   -25.23 dB      3:26 01-You Left Me In The Dark
DR14      -3.18 dB   -23.57 dB      4:35 02-Someone Took The Words Away
DR16      -1.99 dB   -24.73 dB      5:23 03-When Did I Stop Dreaming
DR13      -4.76 dB   -25.62 dB      2:33 04-You Turned To Me
DR13      -4.86 dB   -25.03 dB      3:12 05-Fallen
DR13      -4.24 dB   -24.76 dB      3:59 06-When It Sings
DR17      -4.75 dB   -24.05 dB      2:28 07-Still
DR14      -4.68 dB   -25.22 dB      4:24 08-Let Me Tell You About Her
DR13      -4.04 dB   -24.53 dB      3:46 09-Can You Be True?
DR13      -2.18 dB   -23.37 dB      4:18 10-When Green Eyes Turn Blue
DR14      -1.61 dB   -25.11 dB      2:36 11-I'm In The Mood Again
DR14      -1.54 dB   -20.90 dB      4:58 12-Impatience
--------------------------------------------------------------------------------

Number of tracks:  12
Official DR value: DR14

Samplerate:        2822400 Hz / PCM Samplerate: 176400 Hz
Channels:          6
Bits per sample:   1
Bitrate:           16934 kbps
Codec:             DST64
================================================================================

--------------------------------------------------------------------------------
Analyzed: Elvis Costello / North
--------------------------------------------------------------------------------

DR         Peak         RMS     Duration Track
--------------------------------------------------------------------------------
DR12      -5.60 dB   -20.72 dB      3:25 01-You Left Me In The Dark
DR11      -5.46 dB   -19.50 dB      4:35 02-Someone Took The Words Away
DR10      -5.47 dB   -18.68 dB      5:21 03-When Did I Stop Dreaming
DR11      -5.41 dB   -19.11 dB      2:31 04-You Turned To Me
DR11      -5.52 dB   -20.85 dB      3:11 05-Fallen
DR10      -5.45 dB   -18.85 dB      3:55 06-When It Sings
DR10      -5.47 dB   -18.63 dB      2:25 07-Still
DR13      -5.52 dB   -21.26 dB      4:23 08-Let Me Tell You About Her
DR8       -5.31 dB   -16.83 dB      3:45 09-Can You Be True?
DR10      -5.49 dB   -18.32 dB      4:16 10-When Green Eyes Turn Blue
DR11      -5.42 dB   -19.37 dB      2:36 11-I'm In The Mood Again
DR9       -5.47 dB   -16.39 dB      4:58 12-Impatience
--------------------------------------------------------------------------------

Number of tracks:  12
Official DR value: DR10

Samplerate:        2822400 Hz / PCM Samplerate: 176400 Hz
Channels:          2
Bits per sample:   1
Bitrate:           5645 kbps
Codec:             DST64
================================================================================




Create a new paste based on this one


Comments: