[ create a new paste ] login | about

Link: http://codepad.org/onbvrYFi    [ raw code | fork ]

Plain Text, pasted on Dec 28:
foobar2000 1.3.8 / Dynamic Range Meter 1.1.1
log date: 2016-10-22 18:35:03

--------------------------------------------------------------------------------
Analyzed: The Rolling Stones / Beggar's Banquet
--------------------------------------------------------------------------------

DR         Peak         RMS     Duration Track
--------------------------------------------------------------------------------
DR9        0.00 dB   -11.53 dB      6:29 01-Sympathy For The Devil
DR10      -0.18 dB   -12.14 dB      3:57 02-No Expectations
DR8        0.00 dB   -10.35 dB      3:22 03-Dear Doctor
DR8        0.00 dB   -10.53 dB      2:21 04-Parachute Woman
DR8        0.00 dB   -10.30 dB      6:06 05-Jigsaw Puzzle
DR9        0.00 dB   -10.63 dB      3:16 06-Street Fighting Man
DR12       0.00 dB   -13.64 dB      2:52 07-Prodigal Son
DR8        0.00 dB   -10.07 dB      4:38 08-Stray Cat Blues
DR9       -0.04 dB   -12.07 dB      2:09 09-Factory Girl
DR9        0.00 dB   -11.22 dB      4:47 10-Salt Of The Earth
--------------------------------------------------------------------------------

Number of tracks:  10
Official DR value: DR9

Samplerate:        192000 Hz
Channels:          2
Bits per sample:   24
Bitrate:           3454 kbps
Codec:             FLAC
================================================================================




Create a new paste based on this one


Comments: