[ create a new paste ] login | about

Link: http://codepad.org/oo2nE7hb    [ raw code | fork ]

Plain Text, pasted on Sep 26:
foobar2000 1.3.17 / Dynamic Range Meter 1.1.1
log date: 2018-09-26 00:27:41

--------------------------------------------------------------------------------
Analyzed: BRUCE SPRINGSTEEN & THE E STREET BAND / LIVE IN NEW YORK CITY
--------------------------------------------------------------------------------

DR         Peak         RMS     Duration Track
--------------------------------------------------------------------------------
DR12      -6.08 dB   -20.29 dB      5:38 01-My Love Will Not Let You Down
DR11      -6.08 dB   -19.77 dB      6:16 02-Prove It All Night
DR11      -6.16 dB   -20.05 dB      4:29 03-Two Hearts
DR13      -6.12 dB   -22.36 dB      6:36 04-Atlantic City
DR12      -6.42 dB   -25.00 dB      4:19 05-Mansion On The Hill
DR14      -6.24 dB   -27.47 dB     11:16 06-The River
DR11      -6.09 dB   -20.57 dB      6:16 07-Youngstown
DR11      -6.04 dB   -19.27 dB      6:07 08-Murder Incorporated
DR11      -6.04 dB   -19.96 dB      5:43 09-Badlands
DR12      -6.08 dB   -20.97 dB      6:39 10-Out In The Street
DR12      -6.22 dB   -20.87 dB      5:57 11-Born To Run
--------------------------------------------------------------------------------

Number of tracks:  11
Official DR value: DR12

Samplerate:        2822400 Hz / PCM Samplerate: 176400 Hz
Channels:          6
Bits per sample:   1
Bitrate:           16934 kbps
Codec:             DST64
================================================================================

--------------------------------------------------------------------------------
Analyzed: BRUCE SPRINGSTEEN & THE E STREET BAND / LIVE IN NEW YORK CITY
--------------------------------------------------------------------------------

DR         Peak         RMS     Duration Track
--------------------------------------------------------------------------------
DR8       -5.92 dB   -15.35 dB      5:38 01-My Love Will Not Let You Down
DR8       -5.79 dB   -14.75 dB      6:16 02-Prove It All Night
DR7       -5.97 dB   -14.35 dB      4:30 03-Two Hearts
DR9       -5.94 dB   -16.73 dB      6:36 04-Atlantic City
DR11      -6.11 dB   -19.59 dB      4:19 05-Mansion On The Hill
DR12      -6.02 dB   -21.84 dB     11:16 06-The River
DR8       -5.98 dB   -15.40 dB      6:16 07-Youngstown
DR7       -5.92 dB   -14.32 dB      6:07 08-Murder Incorporated
DR8       -5.90 dB   -14.82 dB      5:43 09-Badlands
DR9       -5.88 dB   -15.73 dB      6:39 10-Out In The Street
DR8       -5.94 dB   -14.72 dB      5:57 11-Born To Run
--------------------------------------------------------------------------------

Number of tracks:  11
Official DR value: DR9

Samplerate:        2822400 Hz / PCM Samplerate: 176400 Hz
Channels:          2
Bits per sample:   1
Bitrate:           5645 kbps
Codec:             DST64
================================================================================


foobar2000 1.3.17 / Dynamic Range Meter 1.1.1
log date: 2018-09-26 01:20:42

--------------------------------------------------------------------------------
Analyzed: BRUCE SPRINGSTEEN & THE E STREET BAND / LIVE IN NEW YORK CITY
--------------------------------------------------------------------------------

DR         Peak         RMS     Duration Track
--------------------------------------------------------------------------------
DR12      -6.09 dB   -21.30 dB     16:09 01-Tenth Avenue Freeze-Out
DR12      -5.72 dB   -21.47 dB      9:46 02-Land Of Hope And Dreams
DR12      -5.99 dB   -21.83 dB      7:45 03-American Skin (41 Shots)
DR11      -6.07 dB   -21.37 dB      7:23 04-Lost In The Flood
DR13      -6.20 dB   -25.42 dB      5:46 05-Born In The U.S.A.
DR11      -6.14 dB   -19.42 dB      3:19 06-Don't Look Back
DR11      -6.02 dB   -21.59 dB     10:54 07-Jungleland
DR12      -6.15 dB   -20.56 dB      6:28 08-Ramrod
DR14      -7.11 dB   -26.89 dB      6:08 09-If I Should Fall Behind
--------------------------------------------------------------------------------

Number of tracks:  9
Official DR value: DR12

Samplerate:        2822400 Hz / PCM Samplerate: 176400 Hz
Channels:          6
Bits per sample:   1
Bitrate:           16934 kbps
Codec:             DST64
================================================================================

--------------------------------------------------------------------------------
Analyzed: BRUCE SPRINGSTEEN & THE E STREET BAND / LIVE IN NEW YORK CITY
--------------------------------------------------------------------------------

DR         Peak         RMS     Duration Track
--------------------------------------------------------------------------------
DR8       -5.83 dB   -16.38 dB     16:09 01-Tenth Avenue Freeze-Out
DR8       -5.93 dB   -16.13 dB      9:46 02-Land Of Hope And Dreams
DR7       -5.82 dB   -16.72 dB      7:45 03-American Skin (41 Shots)
DR7       -5.97 dB   -15.93 dB      7:24 04-Lost In The Flood
DR10      -6.01 dB   -20.24 dB      5:45 05-Born In The U.S.A.
DR7       -5.82 dB   -13.86 dB      3:19 06-Don't Look Back
DR8       -5.85 dB   -16.41 dB     10:54 07-Jungleland
DR8       -5.93 dB   -14.84 dB      6:28 08-Ramrod
DR13      -6.42 dB   -22.39 dB      6:09 09-If I Should Fall Behind
--------------------------------------------------------------------------------

Number of tracks:  9
Official DR value: DR8

Samplerate:        2822400 Hz / PCM Samplerate: 176400 Hz
Channels:          2
Bits per sample:   1
Bitrate:           5645 kbps
Codec:             DST64
================================================================================




Create a new paste based on this one


Comments: