[ create a new paste ] login | about

Link: http://codepad.org/op3Kto7j    [ raw code | fork ]

Plain Text, pasted on Dec 19:
[CUETools log; Date: 12/19/2018 7:55:45 AM; Version: 2.1.5]
[CTDB TOCID: dUB73dOFR0O9WpZgoulHKuMhQU0-] found.
Track | CTDB Status
  1   | (72/72) Accurately ripped
  2   | (72/72) Accurately ripped
  3   | (72/72) Accurately ripped
  4   | (72/72) Accurately ripped
  5   | (72/72) Accurately ripped
  6   | (72/72) Accurately ripped
  7   | (72/72) Accurately ripped
  8   | (72/72) Accurately ripped
  9   | (72/72) Accurately ripped
 10   | (72/72) Accurately ripped
 11   | (72/72) Accurately ripped
 12   | (72/72) Accurately ripped
 13   | (72/72) Accurately ripped
[AccurateRip ID: 00175b8c-00e9e4a1-b50b590d] found.
Track   [  CRC   |   V2   ] Status
 01     [9a1d492c|95537c01] (00+14/14) Accurately ripped
 02     [ada02446|056dd3f6] (00+14/14) Accurately ripped
 03     [ff37d448|80a7fc82] (00+14/14) Accurately ripped
 04     [4a5a67ec|6cf68e4f] (00+14/14) Accurately ripped
 05     [94a4e2a5|10ed0219] (00+14/14) Accurately ripped
 06     [0b53369c|2078448a] (00+14/14) Accurately ripped
 07     [07f1c12f|7900cf03] (00+14/14) Accurately ripped
 08     [eb250868|f29dab8f] (00+14/14) Accurately ripped
 09     [a0a32108|95b51ef0] (00+14/14) Accurately ripped
 10     [f143e9f0|97a8cc0c] (00+14/14) Accurately ripped
 11     [ec4987b1|bc44a599] (00+14/14) Accurately ripped
 12     [1baa71df|a46941aa] (00+14/14) Accurately ripped
 13     [578ffa0f|b2096995] (00+14/14) Accurately ripped

Track Peak [ CRC32  ] [W/O NULL] [  LOG   ]
 --   99.9 [3C3B2469] [43751A0C]   CRC32   
 01   93.2 [75797C73] [22E9E74A]           
 02   97.4 [A49E92E4] [10A13D56]           
 03   99.9 [2FE4EBDE] [A29FE065]           
 04   97.1 [EC855C06] [0C6F810B]           
 05   96.5 [C2BA6386] [BC8BE78E]           
 06   97.3 [EC4EE2E7] [49DB5B31]           
 07   97.4 [1645F962] [33580FB1]           
 08   97.4 [868CAC64] [74658A34]           
 09   97.5 [B12671FB] [0A3BF7B2]           
 10   82.6 [66506A39] [B84B41C6]           
 11   97.3 [7D8F17D2] [72A95EDD]           
 12   97.2 [94969D34] [F9051EB2]           
 13   98.1 [3548C81D] [2FBAD887]           



Create a new paste based on this one


Comments: