[ create a new paste ] login | about

Link: http://codepad.org/oqh9I4qh    [ raw code | fork ]

Plain Text, pasted on Sep 11:
CD 1

Exact Audio Copy V1.2 from 12. August 2016

EAC extraction logfile from 20. November 2016, 0:12

Iggy Pop / Post Pop Depression - Live at the Royal Albert Hall (CD1)

Used drive  : PIONEER DVD-RW DVR-220RS   Adapter: 1  ID: 0

Read mode               : Secure
Utilize accurate stream : Yes
Defeat audio cache      : Yes
Make use of C2 pointers : No

Read offset correction                      : 6
Overread into Lead-In and Lead-Out          : No
Fill up missing offset samples with silence : Yes
Delete leading and trailing silent blocks   : No
Null samples used in CRC calculations       : Yes
Used interface                              : Native Win32 interface for Win NT & 2000

Used output format              : User Defined Encoder
Selected bitrate                : 768 kBit/s
Quality                         : High
Add ID3 tag                     : No
Command line compressor         : C:\Program Files (x86)\Exact Audio Copy\Wavpack\wavpack.exe
Additional command line options : -hm %source% %dest%


TOC of the extracted CD

     Track |   Start  |  Length  | Start sector | End sector 
    ---------------------------------------------------------
        1  |  0:00.00 |  5:11.18 |         0    |    23342   
        2  |  5:11.18 |  4:14.28 |     23343    |    42420   
        3  |  9:25.46 |  4:34.00 |     42421    |    62970   
        4  | 13:59.46 |  2:36.26 |     62971    |    74696   
        5  | 16:35.72 |  4:32.21 |     74697    |    95117   
        6  | 21:08.18 |  3:59.08 |     95118    |   113050   
        7  | 25:07.26 |  3:14.07 |    113051    |   127607   
        8  | 28:21.33 |  3:50.44 |    127608    |   144901   
        9  | 32:12.02 |  5:56.41 |    144902    |   171642   


Range status and errors

Selected range

     Filename C:\_NL+_\_CD\Iggy Pop - Post Pop Depression - Live at the Royal Albert Hall (CD1).wav

     Peak level 100.0 %
     Extraction speed 1.6 X
     Range quality 100.0 %
     Test CRC 36BC5951
     Copy CRC 36BC5951
     Copy OK

No errors occurred

 
AccurateRip summary
 
Track  1  not present in database
Track  2  not present in database
Track  3  not present in database
Track  4  not present in database
Track  5  not present in database
Track  6  not present in database
Track  7  not present in database
Track  8  not present in database
Track  9  not present in database
 
None of the tracks are present in the AccurateRip database

End of status report

---- CUETools DB Plugin V2.1.6

[CTDB TOCID: Rd0v_EFIfeTmLk4RC3IW_bZQm_g-] found
Submit result: Rd0v_EFIfeTmLk4RC3IW_bZQm_g- has been confirmed
Track | CTDB Status
  1   | (16/16) Accurately ripped
  2   | (16/16) Accurately ripped
  3   | (16/16) Accurately ripped
  4   | (16/16) Accurately ripped
  5   | (16/16) Accurately ripped
  6   | (16/16) Accurately ripped
  7   | (16/16) Accurately ripped
  8   | (16/16) Accurately ripped
  9   | (16/16) Accurately ripped


==== Log checksum A897E28A04A85B97A7DDA1FEBFF98258CE880FBC12817E2730C06DF93D728994 ====

================================================================================================================

CD 2

Exact Audio Copy V1.2 from 12. August 2016

EAC extraction logfile from 21. November 2016, 0:50

Iggy Pop / Post Pop Depression - Live at the Royal Albert Hall (CD2)

Used drive  : PIONEER DVD-RW DVR-220RS   Adapter: 1  ID: 0

Read mode               : Secure
Utilize accurate stream : Yes
Defeat audio cache      : Yes
Make use of C2 pointers : No

Read offset correction                      : 6
Overread into Lead-In and Lead-Out          : No
Fill up missing offset samples with silence : Yes
Delete leading and trailing silent blocks   : No
Null samples used in CRC calculations       : Yes
Used interface                              : Native Win32 interface for Win NT & 2000

Used output format              : User Defined Encoder
Selected bitrate                : 768 kBit/s
Quality                         : High
Add ID3 tag                     : No
Command line compressor         : C:\Program Files (x86)\Exact Audio Copy\Wavpack\wavpack.exe
Additional command line options : -hm %source% %dest%


TOC of the extracted CD

     Track |   Start  |  Length  | Start sector | End sector 
    ---------------------------------------------------------
        1  |  0:00.00 |  4:53.68 |         0    |    22042   
        2  |  4:53.68 |  6:54.28 |     22043    |    53120   
        3  | 11:48.21 |  4:38.72 |     53121    |    74042   
        4  | 16:27.18 |  4:31.66 |     74043    |    94433   
        5  | 20:59.09 |  5:41.50 |     94434    |   120058   
        6  | 26:40.59 |  6:25.65 |    120059    |   148998   
        7  | 33:06.49 |  4:07.31 |    148999    |   167554   
        8  | 37:14.05 |  7:56.07 |    167555    |   203261   
        9  | 45:10.12 |  4:53.71 |    203262    |   225307   
       10  | 50:04.08 |  3:38.29 |    225308    |   241686   
       11  | 53:42.37 |  4:02.28 |    241687    |   259864   
       12  | 57:44.65 |  6:27.22 |    259865    |   288911   
       13  | 64:12.12 |  5:58.04 |    288912    |   315765   


Range status and errors

Selected range

     Filename C:\_NL+_\_CD\Iggy Pop - Post Pop Depression - Live at the Royal Albert Hall (CD2).wav

     Peak level 100.0 %
     Extraction speed 2.1 X
     Range quality 100.0 %
     Test CRC 65F69F23
     Copy CRC 65F69F23
     Copy OK

No errors occurred

 
AccurateRip summary
 
Track  1  not present in database
Track  2  not present in database
Track  3  not present in database
Track  4  not present in database
Track  5  not present in database
Track  6  not present in database
Track  7  not present in database
Track  8  not present in database
Track  9  not present in database
Track 10  not present in database
Track 11  not present in database
Track 12  not present in database
Track 13  not present in database
 
None of the tracks are present in the AccurateRip database

End of status report

---- CUETools DB Plugin V2.1.6

[CTDB TOCID: eZM.eM.3TDtfkheAV0SDR3IM9Yo-] found
Submit result: eZM.eM.3TDtfkheAV0SDR3IM9Yo- has been confirmed
Track | CTDB Status
  1   | (15/15) Accurately ripped
  2   | (15/15) Accurately ripped
  3   | (15/15) Accurately ripped
  4   | (15/15) Accurately ripped
  5   | (15/15) Accurately ripped
  6   | (15/15) Accurately ripped
  7   | (14/15) Accurately ripped
  8   | (15/15) Accurately ripped
  9   | (15/15) Accurately ripped
 10   | (15/15) Accurately ripped
 11   | (15/15) Accurately ripped
 12   | (15/15) Accurately ripped
 13   | (14/15) Accurately ripped


==== Log checksum EB686EAA31D3F2AEDEEE135235AFE6E97CF57427905C24A7B3F28488160FE2EA ====



Create a new paste based on this one


Comments: