[ create a new paste ] login | about

Link: http://codepad.org/otfB0aol    [ raw code | fork ]

Plain Text, pasted on Feb 15:
Exact Audio Copy V0.99 prebeta 4 from 23. January 2008

EAC extraction logfile from 2. May 2009, 1:21

Sonny & Cher / The Beat Goes On

Used drive  : Optiarc DVD RW AD-5200S   Adapter: 2  ID: 0

Read mode               : Secure
Utilize accurate stream : Yes
Defeat audio cache      : Yes
Make use of C2 pointers : No

Read offset correction                      : 48
Overread into Lead-In and Lead-Out          : No
Fill up missing offset samples with silence : Yes
Delete leading and trailing silent blocks   : No
Null samples used in CRC calculations       : Yes
Used interface                              : Native Win32 interface for Win NT & 2000

Used output format : Internal WAV Routines
Sample format      : 44.100 Hz; 16 Bit; Stereo

TOC of the extracted CD

     Track |   Start  |  Length  | Start sector | End sector 
    ---------------------------------------------------------
        1  |  0:00.00 |  3:09.69 |         0    |    14243   
        2  |  3:09.69 |  4:03.49 |     14244    |    32517   
        3  |  7:13.43 |  3:39.35 |     32518    |    48977   
        4  | 10:53.03 |  3:11.26 |     48978    |    63328   
        5  | 14:04.29 |  2:34.69 |     63329    |    74947   
        6  | 16:39.23 |  2:51.40 |     74948    |    87812   
        7  | 19:30.63 |  3:03.38 |     87813    |   101575   
        8  | 22:34.26 |  3:26.06 |    101576    |   117031   
        9  | 26:00.32 |  3:37.13 |    117032    |   133319   
       10  | 29:37.45 |  3:42.57 |    133320    |   150026   
       11  | 33:20.27 |  2:03.53 |    150027    |   159304   
       12  | 35:24.05 |  3:18.22 |    159305    |   174176   
       13  | 38:42.27 |  3:36.07 |    174177    |   190383   
       14  | 42:18.34 |  3:02.08 |    190384    |   204041   
       15  | 45:20.42 |  3:26.73 |    204042    |   219564   
       16  | 48:47.40 |  2:50.00 |    219565    |   232314   
       17  | 51:37.40 |  3:04.07 |    232315    |   246121   
       18  | 54:41.47 |  4:13.24 |    246122    |   265120   
       19  | 58:54.71 |  2:56.24 |    265121    |   278344   
       20  | 61:51.20 |  2:18.03 |    278345    |   288697   
       21  | 64:09.23 |  3:11.63 |    288698    |   303085   

Range status and errors

Selected range

     Filename E:\FlacTemp\Sonny & Cher\Sonny & Cher - The Beat Goes On.wav

     Peak level 92.6 %
     Range quality 100.0 %
     Copy CRC 57211EAF
     Copy OK

No errors occurred

End of status report



Create a new paste based on this one


Comments: