[ create a new paste ] login | about

Link: http://codepad.org/ouFqI6Hj    [ raw code | fork ]

Plain Text, pasted on Dec 7:
[CUETools log; Date: 3/28/2016 9:24:42 AM; Version: 2.1.5]
[CTDB TOCID: 9ERnDnUVKKUdAzv5Z4Zwez0EXUM-] found.
Track | CTDB Status
  1   | (15/15) Accurately ripped
  2   | (15/15) Accurately ripped
  3   | (15/15) Accurately ripped
  4   | (15/15) Accurately ripped
  5   | (15/15) Accurately ripped
  6   | (15/15) Accurately ripped
  7   | (15/15) Accurately ripped
  8   | (14/15) Accurately ripped
[AccurateRip ID: 000c0348-00528d0c-620a8a08] found.
Track   [  CRC   |   V2   ] Status
 01     [5b7c3685|1aaab743] (22+15/37) Accurately ripped
 02     [9d439584|114cea3a] (21+15/36) Accurately ripped
 03     [0448130a|a6a36d34] (21+15/36) Accurately ripped
 04     [c1fa955a|7289cf77] (21+15/36) Accurately ripped
 05     [bec20a77|7093b3d4] (21+14/35) Accurately ripped
 06     [ea3f121f|0efb5717] (22+14/36) Accurately ripped
 07     [bca5e966|f33c0e97] (21+14/35) Accurately ripped
 08     [b72c78ca|1ed768b0] (22+14/36) Accurately ripped

Track Peak [ CRC32  ] [W/O NULL] [  LOG   ]
 --   97.5 [8904C5E6] [F800EAAC]           
 01   97.5 [23E1345D] [5C83F4DD]   CRC32   
 02   95.4 [AA314605] [AEC41947]   CRC32   
 03   93.2 [E62E2DBB] [E27BF568]   CRC32   
 04   93.9 [17C2A2C6] [AB07DADC]   CRC32   
 05   94.1 [02423E56] [932C84C2]   CRC32   
 06   94.0 [8B5EBD78] [34CD08A9]   CRC32   
 07   93.4 [74F1C9DE] [A34A8E84]   CRC32   
 08   94.0 [513D1FBA] [D8A9FA38]   CRC32   



Create a new paste based on this one


Comments: