[ create a new paste ] login | about

Link: http://codepad.org/ovGqbO41    [ raw code | fork ]

Plain Text, pasted on Sep 25:
foobar2000 1.3.17 / Dynamic Range Meter 1.1.1
log date: 2018-09-25 09:32:46

--------------------------------------------------------------------------------
Analyzed: Kid Rock / Greatest Hits: You Never Saw Coming
--------------------------------------------------------------------------------

DR         Peak         RMS     Duration Track
--------------------------------------------------------------------------------
DR6       -0.11 dB    -8.27 dB      4:28 01-Bawitdaba
DR6        0.00 dB    -7.73 dB      4:57 02-All Summer Long
DR7        0.00 dB    -8.71 dB      4:19 03-Cowboy
DR5        0.00 dB    -7.16 dB      5:15 04-Born Free
DR5        0.00 dB    -7.57 dB      5:34 05-Devil Without A Cause
DR7        0.00 dB    -9.28 dB      4:59 06-Picture (feat. Sheryl Crow)
DR5       -0.20 dB    -6.94 dB      4:34 07-American Bad Ass
DR6       -0.10 dB    -8.08 dB      4:42 08-Johnny Cash
DR5        0.00 dB    -6.45 dB      4:08 09-So Hott
DR6       -0.03 dB    -8.84 dB      4:54 10-You Never Met A Motherfucker Quite Like Me
DR7       -0.03 dB    -8.67 dB      6:12 11-Roll On
DR5       -0.26 dB    -7.17 dB      4:42 12-First Kiss
DR4       -0.29 dB    -6.11 dB      4:36 13-American Rock 'n Roll
DR6        0.00 dB    -7.11 dB      5:28 14-Only God Knows Why
DR7       -0.28 dB    -8.48 dB      4:44 15-Wasting Time (Dixie Remix)
--------------------------------------------------------------------------------

Number of tracks:  15
Official DR value: DR6

Samplerate:        44100 Hz
Channels:          2
Bits per sample:   24
Bitrate:           1688 kbps
Codec:             FLAC
================================================================================




Create a new paste based on this one


Comments: