[ create a new paste ] login | about

Link: http://codepad.org/ozjJd4oB    [ raw code | fork ]

Plain Text, pasted on Sep 12:
foobar2000 1.2.8 / Dynamic Range Meter 1.1.1
log date: 2013-10-01 12:42:55

--------------------------------------------------------------------------------
Analyzed: Frankie Goes To Hollywood / Rage Hard - The Sonic Collection (Hybrid SACD)
--------------------------------------------------------------------------------

DR         Peak         RMS     Duration Track
--------------------------------------------------------------------------------
DR13      -0.76 dB   -17.85 dB      3:59 01-Relax
DR13      -3.51 dB   -21.38 dB      3:25 02-Two Tribes
DR12      -4.39 dB   -20.94 dB      4:06 03-Ferry Cross The Mersey
DR12      -6.14 dB   -28.97 dB      1:58 04-The World Is My Oyster
DR16      -0.55 dB   -22.22 dB     13:46 05-Welcome To The Pleasuredome
DR13      -5.12 dB   -24.71 dB      5:36 06-Maximum Joy
DR15      -4.33 dB   -21.86 dB      3:12 07-San Jose
DR13      -3.32 dB   -22.10 dB      5:01 08-Warriors Of The Wasteland
DR13      -4.12 dB   -21.37 dB      5:04 09-Rage Hard
DR14      -5.22 dB   -22.90 dB      4:21 10-War
DR13      -3.53 dB   -21.29 dB      4:19 11-Watching The Wildlife
DR14      -0.01 dB   -17.62 dB      4:08 12-Born To Run
DR14      -3.61 dB   -22.49 dB      5:52 13-The Power Of Love
--------------------------------------------------------------------------------

Number of tracks:  13
Official DR value: DR13

Samplerate:        88200 Hz
Channels:          6
Bits per sample:   24
Bitrate:           7541 kbps
Codec:             FLAC
================================================================================




Create a new paste based on this one


Comments: