[ create a new paste ] login | about

Link: http://codepad.org/ozuzvJ73    [ raw code | fork ]

Plain Text, pasted on Nov 21:
foobar2000 1.1.18 / Dynamic Range Meter 1.1.1
log date: 2013-01-22 17:46:46

--------------------------------------------------------------------------------
Analyzed: Sam Cooke / Portrait Of A Legend (Hybrid SACD)
--------------------------------------------------------------------------------

DR         Peak         RMS     Duration Track
--------------------------------------------------------------------------------
DR8       -5.63 dB   -15.76 dB      2:04 01-Touch The Hem Of His Garment
DR9       -4.24 dB   -16.33 dB      2:26 02-Lovable
DR9       -5.11 dB   -15.76 dB      2:46 03-You Send Me
DR14      -0.52 dB   -18.22 dB      2:04 04-Only Sixteen
DR10      -5.98 dB   -17.45 dB      2:40 05-(I Love You) For Sentimental Reasons
DR10      -4.20 dB   -15.90 dB      2:22 06-Just For You
DR12      -1.69 dB   -15.61 dB      2:48 07-Win Your Love For Me
DR7       -4.42 dB   -15.01 dB      2:43 08-Everybody Loves To Cha Cha Cha
DR11      -3.07 dB   -15.90 dB      2:15 09-I'll Come Running Back To You
DR10      -5.94 dB   -17.53 dB      2:56 10-You Were Made For Me
DR12      -0.77 dB   -16.25 dB      2:41 11-Sad Mood
DR12      -1.42 dB   -15.26 dB      2:39 12-Cupid
DR15      -0.01 dB   -16.62 dB      2:09 13-Wonderful World
DR11      -1.43 dB   -15.86 dB      2:36 14-Chain Gang
DR11      -4.63 dB   -17.98 dB      2:23 15-Summertime
DR13      -0.51 dB   -16.58 dB      2:54 16-Little Red Rooster
DR11      -1.47 dB   -14.88 dB      2:45 17-Bring It On Home To Me
DR12      -0.54 dB   -15.35 dB      2:40 18-Nothing Can Change This Love
DR12      -2.29 dB   -16.57 dB      2:45 19-Sugar Dumpling
DR12      -3.67 dB   -17.51 dB      2:31 20-Ain't That Good News
DR12      -1.97 dB   -16.22 dB      2:43 21-Meet Me At Mary's Place
DR12      -0.59 dB   -14.51 dB      2:44 22-Twistin' The Night Away
DR12      -1.17 dB   -15.70 dB      2:54 23-Shake
DR12      -2.65 dB   -16.61 dB      3:12 24-Tennessee Waltz
DR13      -0.49 dB   -15.87 dB      2:42 25-Another Saturday Night
DR11      -2.89 dB   -15.35 dB      2:28 26-Good Times
DR13      -0.51 dB   -16.30 dB      2:37 27-Having A Party
DR11      -0.88 dB   -15.03 dB      2:37 28-That's Where It's At
DR10      -2.26 dB   -15.76 dB      3:13 29-A Change Is Gonna Come
DR11      -6.07 dB   -19.25 dB      2:32 30-Jesus Gave Me Water
DR11      -8.98 dB   -22.90 dB      4:27 31-Soul
--------------------------------------------------------------------------------

Number of tracks:  31
Official DR value: DR11

Samplerate:        88200 Hz
Channels:          2
Bits per sample:   24
Bitrate:           1999 kbps
Codec:             FLAC
================================================================================




Create a new paste based on this one


Comments: