[ create a new paste ] login | about

Link: http://codepad.org/p1136XVp    [ raw code | fork ]

Plain Text, pasted on Aug 1:
foobar2000 1.3.17 / Dynamic Range Meter 1.1.1
log date: 2018-07-31 18:24:46

--------------------------------------------------------------------------------
Analyzed: ERA / THE VERY BEST OF
--------------------------------------------------------------------------------

DR         Peak         RMS     Duration Track
--------------------------------------------------------------------------------
DR7       -3.10 dB   -13.14 dB      3:49 01-AMENO
DR11      -0.34 dB   -13.39 dB      4:24 02-DON'T GO AWAY
DR7       -2.42 dB   -11.65 dB      3:40 03-THE MASS
DR10      -3.02 dB   -14.48 dB      4:07 04-MOTHER
DR8       -2.97 dB   -12.74 dB      4:03 05-MISERE MANI
DR12      -0.10 dB   -14.11 dB      4:19 06-AVEMANO ORCHESTRAL
DR11      -0.01 dB   -12.88 dB      4:09 07-LOOKING FOR SOMETHING
DR9       -0.62 dB   -12.36 dB      2:58 08-DON'T U
DR12      -0.31 dB   -13.20 dB      3:34 09-ENEA VOLARE
DR10      -1.09 dB   -13.48 dB      3:18 10-CATHAR RHYTHM
DR6       -3.00 dB   -11.50 dB      3:52 11-DIVANO
DR11      -0.52 dB   -14.73 dB      3:39 12-DON'T YOU FORGET
DR9       -0.37 dB   -11.79 dB      4:53 13-HYMNE
DR7       -3.06 dB   -12.27 dB      4:53 14-SENTENCE
DR6       -4.92 dB   -13.96 dB      4:23 15-I BELIEVE
DR7       -2.98 dB   -12.37 dB      3:18 16-LOOKING FOR SOMETHING
--------------------------------------------------------------------------------

Number of tracks:  16
Official DR value: DR9

Samplerate:        88200 Hz
Channels:          2
Bits per sample:   24
Bitrate:           2842 kbps
Codec:             FLAC
================================================================================




Create a new paste based on this one


Comments: