[ create a new paste ] login | about

Link: http://codepad.org/p1K1Y6O0    [ raw code | fork ]

Plain Text, pasted on Oct 20:
Exact Audio Copy V1.0 beta 3 from 29. August 2011

EAC extraction logfile from 11. September 2016, 12:29

Mudcrutch / 2

Used drive  : PLEXTOR DVDR   PX-L890SA   Adapter: 5  ID: 1

Read mode               : Secure
Utilize accurate stream : Yes
Defeat audio cache      : Yes
Make use of C2 pointers : No

Read offset correction                      : 6
Overread into Lead-In and Lead-Out          : No
Fill up missing offset samples with silence : Yes
Delete leading and trailing silent blocks   : No
Null samples used in CRC calculations       : Yes
Used interface                              : Native Win32 interface for Win NT & 2000

Used output format              : User Defined Encoder
Selected bitrate                : 768 kBit/s
Quality                         : High
Add ID3 tag                     : No
Command line compressor         : C:\Program Files (x86)\Exact Audio Copy\Flac\flac.exe
Additional command line options : -V -8 -T "Date=%year%" -T "Genre=%genre%" %source%


TOC of the extracted CD

     Track |   Start  |  Length  | Start sector | End sector 
    ---------------------------------------------------------
        1  |  0:00.00 |  3:17.00 |         0    |    14774   
        2  |  3:17.00 |  3:58.70 |     14775    |    32694   
        3  |  7:15.70 |  6:36.49 |     32695    |    62443   
        4  | 13:52.44 |  3:08.04 |     62444    |    76547   
        5  | 17:00.48 |  4:13.51 |     76548    |    95573   
        6  | 21:14.24 |  3:16.42 |     95574    |   110315   
        7  | 24:30.66 |  3:10.51 |    110316    |   124616   
        8  | 27:41.42 |  3:31.04 |    124617    |   140445   
        9  | 31:12.46 |  3:11.43 |    140446    |   154813   
       10  | 34:24.14 |  2:37.18 |    154814    |   166606   
       11  | 37:01.32 |  6:13.67 |    166607    |   194648   


Range status and errors

Selected range

     Filename H:\MUSIC\2016. Mudcrutch - 2 (Reprise 9362-49208-2, EU)\Mudcrutch - 2.wav

     Peak level 100.0 %
     Extraction speed 7.9 X
     Range quality 100.0 %
     Test CRC F122C4D1
     Copy CRC F122C4D1
     Copy OK

No errors occurred

 
AccurateRip summary
 
Track  1  accurately ripped (confidence 35)  [D73361BD]  (AR v2)
Track  2  accurately ripped (confidence 34)  [C9402D0E]  (AR v2)
Track  3  accurately ripped (confidence 35)  [E5A8290F]  (AR v2)
Track  4  accurately ripped (confidence 35)  [E99E55F9]  (AR v2)
Track  5  accurately ripped (confidence 34)  [C170D848]  (AR v2)
Track  6  accurately ripped (confidence 35)  [B6C3193B]  (AR v2)
Track  7  accurately ripped (confidence 35)  [B29995E9]  (AR v2)
Track  8  accurately ripped (confidence 35)  [EE640420]  (AR v2)
Track  9  accurately ripped (confidence 35)  [1B4D3AD2]  (AR v2)
Track 10  accurately ripped (confidence 35)  [F2F6A247]  (AR v2)
Track 11  accurately ripped (confidence 35)  [0E8C972D]  (AR v2)
 
All tracks accurately ripped

End of status report

==== Log checksum AA8D1B24AEF530C80E68E623FD6393BFDFAA0231C786F47063ED1EF2B3D13DA4 ====



Create a new paste based on this one


Comments: