[ create a new paste ] login | about

Link: http://codepad.org/p8iseR5w    [ raw code | fork ]

Plain Text, pasted on Jan 11:
foobar2000 1.5 / Dynamic Range Meter 1.1.1
log date: 2020-01-11 06:43:56

--------------------------------------------------------------------------------
Analyzed: Simon & Garfunkel / Bridge Over Trouble Water [2018 Mobile Fidelity 45RPM UltraDisc 1-Step Pressing]
--------------------------------------------------------------------------------

DR         Peak         RMS     Duration Track
--------------------------------------------------------------------------------
DR10      -4.16 dB   -19.43 dB      4:55 01-Bridge Over Troubled Water
DR10      -7.78 dB   -22.23 dB      3:11 02-El Condor Pasa (If I Could)
DR13      -1.36 dB   -17.28 dB      2:54 03-Cecilia
DR10      -0.32 dB   -14.08 dB      2:37 04-Keep The Customer Satisfied
DR11      -7.37 dB   -20.50 dB      3:48 05-So Long, Frank Lloyd Wright
DR10      -5.76 dB   -19.81 dB      5:12 06-The Boxer
DR12      -2.30 dB   -16.86 dB      3:19 07-Baby Driver
DR13      -0.67 dB   -16.39 dB      4:01 08-The Only Living Boy In New York
DR12      -0.25 dB   -15.02 dB      2:46 09-Why Don't You Write Me
DR12      -0.26 dB   -15.39 dB      2:54 10-Bye Bye Love
DR9       -7.66 dB   -20.63 dB      1:51 11-Song For The Asking
--------------------------------------------------------------------------------

Number of tracks:  11
Official DR value: DR11

Samplerate:        192000 Hz
Channels:          2
Bits per sample:   24
Bitrate:           4915 kbps
Codec:             FLAC
================================================================================




Create a new paste based on this one


Comments: