[ create a new paste ] login | about

Link: http://codepad.org/p96OlhFz    [ raw code | fork ]

Plain Text, pasted on Jun 15:
Exact Audio Copy V1.1 from 23. June 2015

EAC extraction logfile from 6. June 2016, 19:26

Guns N' Roses / Greatest Hits Live-in Concert on Air 1989-1991 CD1

Used drive  : PIONEER BD-RW   BDR-209D   Adapter: 0  ID: 5

Read mode               : Secure
Utilize accurate stream : Yes
Defeat audio cache      : Yes
Make use of C2 pointers : No

Read offset correction                      : 667
Overread into Lead-In and Lead-Out          : No
Fill up missing offset samples with silence : Yes
Delete leading and trailing silent blocks   : No
Null samples used in CRC calculations       : Yes
Used interface                              : Installed external ASPI interface

Used output format              : User Defined Encoder
Selected bitrate                : 768 kBit/s
Quality                         : High
Add ID3 tag                     : No
Command line compressor         : C:\Program Files (x86)\Exact Audio Copy\FLAC\FLAC.EXE
Additional command line options : -6 -V -T "ARTIST=%artist%" -T "TITLE=%title%" -T "ALBUM=%albumtitle%" -T "DATE=%year%" -T "TRACKNUMBER=%tracknr%" -T "GENRE=%genre%" -T "COMMENT=%comment%" -T "BAND=%albuminterpret%" -T "ALBUMARTIST=%albuminterpret%" -T "COMPOSER=%composer%" %haslyrics%--tag-from-file=LYRICS="%lyricsfile%"%haslyrics% -T "DISCNUMBER=%cdnumber%" -T "TOTALDISCS=%totalcds%" -T "TOTALTRACKS=%numtracks%" %hascover%--picture="%coverfile%"%hascover% %source% -o %dest%


TOC of the extracted CD

     Track |   Start  |  Length  | Start sector | End sector 
    ---------------------------------------------------------
        1  |  0:00.00 |  3:49.11 |         0    |    17185   
        2  |  3:49.11 |  4:42.63 |     17186    |    38398   
        3  |  8:31.74 |  5:12.35 |     38399    |    61833   
        4  | 13:44.34 |  7:03.60 |     61834    |    93618   
        5  | 20:48.19 |  5:08.60 |     93619    |   116778   
        6  | 25:57.04 |  7:06.26 |    116779    |   148754   
        7  | 33:03.30 |  6:17.24 |    148755    |   177053   
        8  | 39:20.54 |  5:12.17 |    177054    |   200470   
        9  | 44:32.71 |  6:48.56 |    200471    |   231126   
       10  | 51:21.52 |  4:53.69 |    231127    |   253170   
       11  | 56:15.46 |  6:55.04 |    253171    |   284299   


Range status and errors

Selected range

     Filename E:\MUSIC\Guns N' Roses - Greatest Hits Live-in Concert on Air 1989-1991 CD1.wav

     Peak level 98.9 %
     Extraction speed 7.6 X
     Range quality 100.0 %
     Test CRC 526127B7
     Copy CRC 526127B7
     Copy OK

No errors occurred

 
AccurateRip summary
 
Track  1  not present in database
Track  2  not present in database
Track  3  not present in database
Track  4  not present in database
Track  5  not present in database
Track  6  not present in database
Track  7  not present in database
Track  8  not present in database
Track  9  not present in database
Track 10  not present in database
Track 11  not present in database
 
None of the tracks are present in the AccurateRip database

End of status report

==== Log checksum D72EA7993EE966467DA151D618F058D7D68781C7E90E3DE80F8D21C450F68273 ====



Create a new paste based on this one


Comments: