[ create a new paste ] login | about

Link: http://codepad.org/pCTWzP2Y    [ raw code | fork ]

Plain Text, pasted on May 6:
foobar2000 1.4.1 / Dynamic Range Meter 1.1.1
log date: 2019-05-05 23:02:52

--------------------------------------------------------------------------------
Analyzed: Elvis Presley / Back In Memphis
--------------------------------------------------------------------------------

DR         Peak         RMS     Duration Track
--------------------------------------------------------------------------------
DR11      -0.72 dB   -14.69 dB      3:00 01-Inherit the Wind
DR12      -0.56 dB   -16.87 dB      2:32 02-This Is the Story
DR11      -0.09 dB   -12.95 dB      4:28 03-Stranger In My Own Home Town
DR13      -0.95 dB   -16.11 dB      3:26 04-A Little Bit of Green
DR11      -2.05 dB   -16.06 dB      3:13 05-And the Grass Won't Pay No Mind
DR12      -2.21 dB   -18.06 dB      2:52 06-Do You Know Who I Am
DR10      -1.56 dB   -14.72 dB      2:28 07-From a Jack to a King
DR11      -0.28 dB   -15.50 dB      3:13 08-The Fair's Moving On
DR12      -0.80 dB   -16.66 dB      4:04 09-You'll Think of Me
DR11      -1.09 dB   -15.95 dB      2:53 10-Without Love (There Is Nothing)
--------------------------------------------------------------------------------

Number of tracks:  10
Official DR value: DR11

Samplerate:        96000 Hz
Channels:          2
Bits per sample:   24
Bitrate:           2993 kbps
Codec:             FLAC
================================================================================




Create a new paste based on this one


Comments: