[ create a new paste ] login | about

Link: http://codepad.org/pDPzIj7R    [ raw code | fork ]

Plain Text, pasted on Mar 10:
foobar2000 1.5 / Dynamic Range Meter 1.1.1
log date: 2020-03-10 18:59:26

--------------------------------------------------------------------------------
Analyzed: Led Zeppelin / Led Zeppelin II
--------------------------------------------------------------------------------

DR         Peak         RMS     Duration Track
--------------------------------------------------------------------------------
DR13      -0.09 dB   -16.83 dB      5:34 01-Whole Lotta Love
DR12      -1.10 dB   -17.28 dB      4:46 02-What Is And What Should Never Be
DR12      -1.95 dB   -18.25 dB      6:20 03-The Lemon Song
DR11      -1.80 dB   -18.65 dB      4:49 04-Thank You
DR11      -0.72 dB   -14.56 dB      4:14 05-Heartbreaker
DR13      -0.33 dB   -15.13 dB      2:39 06-Livin' Lovin' Maid (She's Just A Woman)
DR13      -0.87 dB   -17.70 dB      4:36 07-Ramble On
DR12      -2.22 dB   -18.51 dB      4:20 08-Moby Dick
DR13      -0.05 dB   -17.04 dB      4:20 09-Bring It On Home
--------------------------------------------------------------------------------

Number of tracks:  9
Official DR value: DR12

Samplerate:        44100 Hz
Channels:          2
Bits per sample:   16
Bitrate:           768 kbps
Codec:             FLAC
================================================================================




Create a new paste based on this one


Comments: