[ create a new paste ] login | about

Link: http://codepad.org/pDaIrp5v    [ raw code | fork ]

Plain Text, pasted on Feb 29:
Disc 1
->
foobar2000 1.5 / Dynamic Range Meter 1.1.1
log date: 2020-02-29 06:32:57

--------------------------------------------------------------------------------
Analyzed: Riccardo Minasi violino   Bizzarrie Armoniche / Biber Sonate del  Rosario CD 1
--------------------------------------------------------------------------------

DR         Peak         RMS     Duration Track
--------------------------------------------------------------------------------
DR12      -2.12 dB   -22.29 dB      5:11 01-Sonata I - Die Verkündigung Mariae
DR13      -0.80 dB   -23.02 dB      6:23 02-Sonata II - Mariae Besuch bei Elisabeth
DR13      -1.69 dB   -22.51 dB      6:05 03-Sonata III - Christi Geburt
DR13      -1.27 dB   -22.77 dB      8:50 04-Sonata IV - Christi Darstellung im Tempel
DR15      -2.89 dB   -26.51 dB      8:29 05-Sonata V - Der Zwölfjährige Jesus im Tempel
DR13      -1.24 dB   -24.76 dB      7:53 06-Sonata VI - Christi Leiden am Ölberg
DR14      -0.83 dB   -24.30 dB      9:27 07-Sonata VII - Christi Geißelung
DR13      -0.01 dB   -21.37 dB      6:00 08-Sonata VIII - Die Dornenkrönung
DR13      -0.02 dB   -21.82 dB      5:55 09-Sonata IX - Die Kreutztragung
DR13      -0.01 dB   -21.74 dB      9:03 10-Sonata X - Die Kreutzigung
--------------------------------------------------------------------------------

Number of tracks:  10
Official DR value: DR13

Samplerate:        88200 Hz
Channels:          6
Bits per sample:   24
Bitrate:           6807 kbps
Codec:             FLAC
================================================================================
->
=========================================================================================================================================================
->
Disc 2
->
foobar2000 1.5 / Dynamic Range Meter 1.1.1
log date: 2020-02-29 06:33:51

--------------------------------------------------------------------------------
Analyzed: Riccardo Minasi violino   Bizzarrie Armoniche / Biber Sonate del  Rosario CD 2
--------------------------------------------------------------------------------

DR         Peak         RMS     Duration Track
--------------------------------------------------------------------------------
DR12      -0.02 dB   -21.13 dB      7:40 01-Sonata XI - Die Auferstehung
DR14      -0.04 dB   -21.88 dB      8:10 02-Sonata XII - Christi Himmelfahrt
DR13      -0.77 dB   -23.71 dB      8:13 03-Sonata XIII - Die Sendung des Heiligen Geistes
DR13      -0.05 dB   -22.05 dB      7:21 04-Sonata XIV - Mariae Himmelfahrt
DR14      -0.63 dB   -24.94 dB     11:34 05-Sonata XV - Die Krönung Mariae
DR14      -0.01 dB   -24.26 dB      8:46 06-Passacaglia in G minor, for solo violin
--------------------------------------------------------------------------------

Number of tracks:  6
Official DR value: DR13

Samplerate:        88200 Hz
Channels:          6
Bits per sample:   24
Bitrate:           6520 kbps
Codec:             FLAC
================================================================================




Create a new paste based on this one


Comments: