[ create a new paste ] login | about

Link: http://codepad.org/pF0fHRSI    [ raw code | fork ]

Plain Text, pasted on Dec 26:
foobar2000 1.4.1 / Dynamic Range Meter 1.1.1
log date: 2018-12-26 09:42:23

--------------------------------------------------------------------------------
Analyzed: Roger Waters / The Soldier's Tale (Narrated by Roger Waters)
--------------------------------------------------------------------------------

DR         Peak         RMS     Duration Track
--------------------------------------------------------------------------------
DR12      -1.45 dB   -18.56 dB      1:47 01-The Soldier's Tale (Narrated By Roger Waters) : Part I: The Soldiers March
DR16      -9.95 dB   -30.31 dB      2:20 02-The Soldier's Tale (Narrated By Roger Waters) : Part I: Slogging Homeword
DR13      -4.94 dB   -27.60 dB      2:36 03-The Soldier's Tale (Narrated By Roger Waters) : Part I: Airs By A Stream
DR17     -10.79 dB   -31.06 dB      7:42 04-The Soldier's Tale (Narrated By Roger Waters) : Part I: As You Can Hear...
DR12      -1.45 dB   -18.76 dB      1:48 05-The Soldier's Tale (Narrated By Roger Waters) : Part I: The Soldiers March (Rep…
DR14     -12.75 dB   -31.28 dB      2:56 06-The Soldier's Tale (Narrated By Roger Waters) : Part I: Eventually, Joseph Reac…
DR14      -9.39 dB   -29.18 dB      2:35 07-The Soldier's Tale (Narrated By Roger Waters) : Part I: Pastorale
DR15     -12.65 dB   -31.88 dB      4:13 08-The Soldier's Tale (Narrated By Roger Waters) : Part I: The Soldier, Disconsola…
DR6      -21.44 dB   -33.92 dB      0:37 09-The Soldier's Tale (Narrated By Roger Waters) : Part I: Pastorale (Reprise)
DR21      -3.72 dB   -30.63 dB      2:48 10-The Soldier's Tale (Narrated By Roger Waters) : Part I: The Soldier, Slowly Com…
DR13     -14.91 dB   -31.61 dB      0:48 11-The Soldier's Tale (Narrated By Roger Waters) : Part I: Airs By A Stream (Repri…
DR18      -4.53 dB   -33.31 dB      5:33 12-The Soldier's Tale (Narrated By Roger Waters) : Part I: Hey Satan, You Bastard.…
DR12     -15.05 dB   -31.41 dB      0:47 13-The Soldier's Tale (Narrated By Roger Waters) : Part I: Airs By A Stream (2Nd R…
DR16     -17.00 dB   -34.64 dB      0:06 14-The Soldier's Tale (Narrated By Roger Waters) : Part I: Now To Be Gained Here...
DR13      -3.81 dB   -21.31 dB      0:51 15-The Soldier's Tale (Narrated By Roger Waters) : Part Ii: The Soldiers March (2N…
DR18     -13.30 dB   -34.22 dB      0:52 16-The Soldier's Tale (Narrated By Roger Waters) : Part Ii: He Doesn't Even Know H…
DR11      -3.63 dB   -16.84 dB      0:28 17-The Soldier's Tale (Narrated By Roger Waters) : Part Ii: The Soldiers March (3R…
DR19      -7.01 dB   -31.15 dB      3:56 18-The Soldier's Tale (Narrated By Roger Waters) : Part Ii: He Doesn't Have A Home…
DR15      -1.49 dB   -20.77 dB      2:39 19-The Soldier's Tale (Narrated By Roger Waters) : Part Ii: The Royal March
DR13     -13.89 dB   -29.50 dB      0:58 20-The Soldier's Tale (Narrated By Roger Waters) : Part Ii: So All Was Arranged...
DR22      -3.24 dB   -32.66 dB      8:40 21-The Soldier's Tale (Narrated By Roger Waters) : Part Ii: Later That Night...
DR18      -2.24 dB   -24.95 dB      2:59 22-The Soldier's Tale (Narrated By Roger Waters) : Part Ii: The Little Concert - L…
DR16     -12.44 dB   -33.49 dB      0:46 23-The Soldier's Tale (Narrated By Roger Waters) : Part Ii: The Soldier, With A Co…
DR12     -12.13 dB   -28.54 dB      1:18 24-The Soldier's Tale (Narrated By Roger Waters) : Part Ii: Three Dances - Tango, …
DR13     -11.49 dB   -28.37 dB      1:01 25-The Soldier's Tale (Narrated By Roger Waters) : Part Ii: Three Dances -  Tango,…
DR14      -3.91 dB   -26.20 dB      4:02 26-The Soldier's Tale (Narrated By Roger Waters) : Part Ii: Three Dances - Waltz &…
DR18     -11.64 dB   -33.63 dB      0:40 27-The Soldier's Tale (Narrated By Roger Waters) : Part Ii: So First A Tango...
DR12      -1.41 dB   -18.62 dB      1:21 28-The Soldier's Tale (Narrated By Roger Waters) : Part Ii: The Devil's Dance
DR17     -11.15 dB   -32.89 dB      0:27 29-The Soldier's Tale (Narrated By Roger Waters) : Part Ii: The Devil, Confused...
DR10      -6.81 dB   -20.99 dB      0:42 30-The Soldier's Tale (Narrated By Roger Waters) : Part Ii: The Little Chorale
DR16     -14.89 dB   -34.20 dB      0:14 31-The Soldier's Tale (Narrated By Roger Waters) : Part Ii: The Devil Recovers Som…
DR12      -2.95 dB   -24.09 dB      0:39 32-The Soldier's Tale (Narrated By Roger Waters) : Part Ii: The Devil's Song - All…
DR16     -17.03 dB   -36.12 dB      0:13 33-The Soldier's Tale (Narrated By Roger Waters) : Part Ii: Hm, A Fair Warning...
DR9      -10.96 dB   -22.03 dB      0:30 34-The Soldier's Tale (Narrated By Roger Waters) : Part Ii: Grand Chorale (Part 1)
DR15     -13.10 dB   -34.62 dB      0:16 35-The Soldier's Tale (Narrated By Roger Waters) : Part Ii: Spring, Summer, Autumn…
DR9      -10.34 dB   -24.06 dB      0:31 36-The Soldier's Tale (Narrated By Roger Waters) : Part Ii: Grand Chorale (Part 2)
DR15     -14.04 dB   -35.81 dB      0:11 37-The Soldier's Tale (Narrated By Roger Waters) : Part Ii: Steady Now...
DR9      -13.08 dB   -27.57 dB      0:27 38-The Soldier's Tale (Narrated By Roger Waters) : Part Ii: Grand Chorale (Part 3)
DR14     -12.43 dB   -35.82 dB      0:14 39-The Soldier's Tale (Narrated By Roger Waters) : Part Ii: Steady, Just Smell The…
DR9      -13.60 dB   -27.86 dB      0:52 40-The Soldier's Tale (Narrated By Roger Waters) : Part Ii: Grand Chorale (Part 4)
DR11     -14.86 dB   -34.52 dB      0:34 41-The Soldier's Tale (Narrated By Roger Waters) : Part Ii: Now I Have Everything.…
DR10     -17.20 dB   -31.81 dB      0:55 42-The Soldier's Tale (Narrated By Roger Waters) : Part Ii: Grand Chorale (Part 5)
DR15     -14.23 dB   -35.34 dB      1:22 43-The Soldier's Tale (Narrated By Roger Waters) : Part Ii: The Princess, All Exci…
DR9      -20.98 dB   -32.63 dB      0:27 44-The Soldier's Tale (Narrated By Roger Waters) : Part Ii: Grand Chorale (Part 6)
DR17     -15.82 dB   -37.08 dB      1:14 45-The Soldier's Tale (Narrated By Roger Waters) : Part Ii: And So, Off They Go...
DR12      -1.37 dB   -18.98 dB      2:25 46-The Soldier's Tale (Narrated By Roger Waters) : Part Ii: Triumphal March Of The…
--------------------------------------------------------------------------------

Number of tracks:  46
Official DR value: DR14

Samplerate:        44100 Hz
Channels:          2
Bits per sample:   24
Bitrate:           1258 kbps
Codec:             FLAC
================================================================================




Create a new paste based on this one


Comments: