[ create a new paste ] login | about

Link: http://codepad.org/pMa2XnCE    [ raw code | fork ]

Plain Text, pasted on Apr 14:
foobar2000 1.3.9 / Dynamic Range Meter 1.1.1
log date: 2016-04-14 19:45:07

--------------------------------------------------------------------------------
Analyzed: Bad Company / Rock 'N' Roll Fantasy: The Very Best Of Bad Company
--------------------------------------------------------------------------------

DR         Peak         RMS     Duration Track
--------------------------------------------------------------------------------
DR10      -0.11 dB   -10.64 dB      3:30 01-Can't Get Enough (Single Edit)
DR11      -0.13 dB   -12.96 dB      4:49 02-Bad Company
DR10      -0.11 dB   -11.76 dB      3:24 03-Movin' On
DR12      -0.12 dB   -14.71 dB      5:02 04-Ready For Love
DR11      -0.21 dB   -12.54 dB      4:17 05-Easy On My Soul (Previously Unreleased)
DR11      -0.21 dB   -11.59 dB      3:38 06-Good Lovin' Gone Bad
DR12      -0.11 dB   -13.46 dB      5:15 07-Feel Like Makin' Love
DR11      -0.12 dB   -12.85 dB      6:20 08-Shooting Star
DR12      -0.12 dB   -13.66 dB      4:02 09-Weep No More
DR9       -0.20 dB   -10.89 dB      4:05 10-See The Sunlight (Previously Unreleased)
DR9       -0.70 dB   -10.97 dB      3:59 11-Live For The Music
DR9       -0.10 dB   -11.01 dB      3:38 12-Simple Man
DR9       -0.11 dB   -10.84 dB      3:17 13-Honey Child
DR11      -0.11 dB   -12.05 dB      3:36 14-Run With The Pack (Single Edit)
DR10      -0.21 dB   -11.99 dB      5:10 15-Burnin' Sky
DR11      -0.35 dB   -12.74 dB      3:19 16-Rock 'N' Roll Fantasy
DR9       -0.21 dB   -11.29 dB      3:48 17-Rhythm Machine
DR10      -0.11 dB   -11.16 dB      3:50 18-Gone, Gone, Gone
DR9       -0.20 dB   -10.89 dB      4:24 19-Electricland (Single Edit)
--------------------------------------------------------------------------------

Number of tracks:  19
Official DR value: DR10

Samplerate:        96000 Hz
Channels:          2
Bits per sample:   24
Bitrate:           3026 kbps
Codec:             FLAC
================================================================================




Create a new paste based on this one


Comments: