[ create a new paste ] login | about

Link: http://codepad.org/pNjxp2kI    [ raw code | fork ]

Plain Text, pasted on Jul 7:
[CUETools log; Date: 7/7/2016 8:18:09 PM; Version: 2.1.5]
[CTDB TOCID: 3PSq9Iwl1w2QInEhzfULt2EOym8-] found.
Track | CTDB Status
  1   | (2/2) Accurately ripped
  2   | (2/2) Accurately ripped
  3   | (2/2) Accurately ripped
  4   | (2/2) Accurately ripped
  5   | (2/2) Accurately ripped
  6   | (2/2) Accurately ripped
  7   | (2/2) Accurately ripped
  8   | (2/2) Accurately ripped
  9   | (2/2) Accurately ripped
 10   | (2/2) Accurately ripped
 11   | (2/2) Accurately ripped
 12   | (2/2) Accurately ripped
 13   | (2/2) Accurately ripped
 14   | (2/2) Accurately ripped
 15   | (2/2) Accurately ripped
 16   | (2/2) Accurately ripped
 17   | (2/2) Accurately ripped
 18   | (2/2) Accurately ripped
 19   | (2/2) Accurately ripped
[AccurateRip ID: 001fddf7-01c00ba2-230b1513] found.
Track   [  CRC   |   V2   ] Status
 01     [40e29c94|3fcf7816] (1+1/3) Accurately ripped
 02     [25af3edc|ee44f28f] (2+0/2) Accurately ripped
 03     [a673e77e|56679c5c] (1+1/3) Accurately ripped
 04     [00e2c77f|197bf838] (1+1/3) Accurately ripped
 05     [d85b2172|6d15022e] (1+1/3) Accurately ripped
 06     [2f8f35b7|591c45ff] (1+1/3) Accurately ripped
 07     [fa520a81|8b9451a0] (1+1/3) Accurately ripped
 08     [1c030bae|cfe4682a] (2+0/2) Accurately ripped
 09     [7cc189f2|f6398460] (1+1/3) Accurately ripped
 10     [ba99c5bd|87a659ad] (1+1/3) Accurately ripped
 11     [64238f7e|df61bc96] (1+1/3) Accurately ripped
 12     [f9da6247|1d5a8b87] (2+0/2) Accurately ripped
 13     [38a2a3af|fb2ef266] (1+1/3) Accurately ripped
 14     [e3856153|e3e1ad3d] (1+1/3) Accurately ripped
 15     [a22a4782|d3478087] (1+1/3) Accurately ripped
 16     [dedd1140|b43ea28c] (1+1/3) Accurately ripped
 17     [00c1f7f3|f0b80c86] (1+1/3) Accurately ripped
 18     [3685bf10|a2c16ea4] (2+0/2) Accurately ripped
 19     [83be8161|23a6b164] (1+1/3) Accurately ripped
Offsetted by -6:
 01     [a72b85e6] (1/3) Accurately ripped
 02     [9b471cb6] (0/2) No match
 03     [31ff56a2] (1/3) Accurately ripped
 04     [d5ee58ef] (1/3) Accurately ripped
 05     [c6e5cc42] (1/3) Accurately ripped
 06     [45bdb145] (1/3) Accurately ripped
 07     [33b151cf] (1/3) Accurately ripped
 08     [2e7f93d6] (0/2) No match
 09     [25848190] (1/3) Accurately ripped
 10     [db045a1d] (1/3) Accurately ripped
 11     [74348254] (1/3) Accurately ripped
 12     [6d809fe9] (0/2) No match
 13     [a1a53231] (1/3) Accurately ripped
 14     [88198965] (1/3) Accurately ripped
 15     [0335bd3c] (1/3) Accurately ripped
 16     [419024aa] (1/3) Accurately ripped
 17     [b63867b1] (1/3) Accurately ripped
 18     [7261ad54] (0/2) No match
 19     [483ec505] (1/3) Accurately ripped

Track Peak [ CRC32  ] [W/O NULL] [  LOG   ]
 --  100.0 [0FF3EBFA] [07ED0094]   CRC32   
 01   89.2 [F7121A62] [5BCB9FCC]           
 02   99.7 [D6581D5D] [5B2B922A]           
 03   77.7 [C9B09852] [F7DA6724]           
 04   97.7 [007F906C] [CACC31DF]           
 05   87.1 [6A982146] [4C972EA5]           
 06   88.6 [2219B325] [C4C06CD5]           
 07  100.0 [A0E3F47E] [BCE1A435]           
 08   93.6 [C862AE44] [CCBCAA93]           
 09   91.9 [B1D79FB0] [56949BDB]           
 10   99.9 [57EDD4DC] [15EAEBCE]           
 11   82.2 [CCAE908B] [3AF83D3D]           
 12   87.1 [6AA55DF6] [A96E7C59]           
 13   86.6 [F8609713] [38FDDAB4]           
 14   89.5 [6D60E7FD] [76522CA3]           
 15   97.6 [36DADCFA] [023718B9]           
 16   93.2 [EFE4310C] [80073897]           
 17   82.0 [006B2328] [4D15D64C]           
 18   74.9 [91CEF14B] [CD592D4E]           
 19   96.9 [0C9EE231] [0657079D]           



Create a new paste based on this one


Comments: