[ create a new paste ] login | about

Link: http://codepad.org/pRIz4x5R    [ raw code | fork ]

Plain Text, pasted on May 8:
foobar2000 1.4.1 / Dynamic Range Meter 1.1.1
log date: 2019-05-07 19:16:19

--------------------------------------------------------------------------------
Analyzed: ? / ?
--------------------------------------------------------------------------------

DR         Peak         RMS     Duration Track
--------------------------------------------------------------------------------
DR13      -4.74 dB   -21.94 dB      5:37 01-Frelon Brun
DR14      -4.70 dB   -24.24 dB     14:04 02-Tout De Suite
DR13      -5.64 dB   -20.91 dB      8:05 03-Petits Machins
DR14      -4.47 dB   -21.74 dB     12:00 04-Filles De Kilimanjaro
DR15      -3.64 dB   -24.39 dB     16:34 05-Mademoiselle Mabry
--------------------------------------------------------------------------------

Number of tracks:  5
Official DR value: DR14

Samplerate:        2822400 Hz / PCM Samplerate: 176400 Hz
Channels:          2
Bits per sample:   1
Bitrate:           5645 kbps
Codec:             DSD64
================================================================================




Create a new paste based on this one


Comments: